  0
SECTION
  2
HEADER
  9
$ACADVER
  1
AC1014
  9
$ACADMAINTVER
 70
     9
  9
$DWGCODEPAGE
  3
ANSI_1252
  9
$INSBASE
 10
0.0
 20
0.0
 30
0.0
  9
$EXTMIN
 10
0.0
 20
0.0
 30
0.0
  9
$EXTMAX
 10
252.0000000000004
 20
191.9999999999999
 30
0.0
  9
$LIMMIN
 10
0.0
 20
0.0
  9
$LIMMAX
 10
12.0
 20
9.0
  9
$ORTHOMODE
 70
     0
  9
$REGENMODE
 70
     1
  9
$FILLMODE
 70
     1
  9
$QTEXTMODE
 70
     0
  9
$MIRRTEXT
 70
     0
  9
$DRAGMODE
 70
     2
  9
$LTSCALE
 40
1.0
  9
$OSMODE
 70
    37
  9
$ATTMODE
 70
     1
  9
$TEXTSIZE
 40
4.5
  9
$TRACEWID
 40
0.05
  9
$TEXTSTYLE
  7
STANDARD
  9
$CLAYER
  8
HATCH
  9
$CELTYPE
  6
BYLAYER
  9
$CECOLOR
 62
   256
  9
$CELTSCALE
 40
1.0
  9
$DELOBJ
 70
     1
  9
$DISPSILH
 70
     0
  9
$DIMSCALE
 40
12.0
  9
$DIMASZ
 40
0.18
  9
$DIMEXO
 40
0.18
  9
$DIMDLI
 40
0.38
  9
$DIMRND
 40
0.0
  9
$DIMDLE
 40
0.0
  9
$DIMEXE
 40
0.18
  9
$DIMTP
 40
0.0
  9
$DIMTM
 40
0.0
  9
$DIMTXT
 40
0.188
  9
$DIMCEN
 40
0.19
  9
$DIMTSZ
 40
0.0
  9
$DIMTOL
 70
     0
  9
$DIMLIM
 70
     0
  9
$DIMTIH
 70
     1
  9
$DIMTOH
 70
     1
  9
$DIMSE1
 70
     0
  9
$DIMSE2
 70
     0
  9
$DIMTAD
 70
     0
  9
$DIMZIN
 70
     0
  9
$DIMBLK
  1

  9
$DIMASO
 70
     1
  9
$DIMSHO
 70
     1
  9
$DIMPOST
  1
"
  9
$DIMAPOST
  1

  9
$DIMALT
 70
     0
  9
$DIMALTD
 70
     2
  9
$DIMALTF
 40
25.4
  9
$DIMLFAC
 40
1.0
  9
$DIMTOFL
 70
     0
  9
$DIMTVP
 40
0.0
  9
$DIMTIX
 70
     0
  9
$DIMSOXD
 70
     0
  9
$DIMSAH
 70
     0
  9
$DIMBLK1
  1

  9
$DIMBLK2
  1

  9
$DIMSTYLE
  2
STANDARD
  9
$DIMCLRD
 70
   256
  9
$DIMCLRE
 70
   256
  9
$DIMCLRT
 70
    30
  9
$DIMTFAC
 40
0.5
  9
$DIMGAP
 40
0.09
  9
$DIMJUST
 70
     0
  9
$DIMSD1
 70
     0
  9
$DIMSD2
 70
     0
  9
$DIMTOLJ
 70
     1
  9
$DIMTZIN
 70
     0
  9
$DIMALTZ
 70
     0
  9
$DIMALTTZ
 70
     0
  9
$DIMFIT
 70
     0
  9
$DIMUPT
 70
     0
  9
$DIMUNIT
 70
     2
  9
$DIMDEC
 70
     2
  9
$DIMTDEC
 70
     2
  9
$DIMALTU
 70
     2
  9
$DIMALTTD
 70
     2
  9
$DIMTXSTY
  7
STANDARD
  9
$DIMAUNIT
 70
     0
  9
$LUNITS
 70
     2
  9
$LUPREC
 70
     3
  9
$SKETCHINC
 40
0.0
  9
$FILLETRAD
 40
0.0
  9
$AUNITS
 70
     0
  9
$AUPREC
 70
     0
  9
$MENU
  1
acad
  9
$ELEVATION
 40
0.0
  9
$PELEVATION
 40
0.0
  9
$THICKNESS
 40
0.0
  9
$LIMCHECK
 70
     0
  9
$CHAMFERA
 40
0.0
  9
$CHAMFERB
 40
0.0
  9
$CHAMFERC
 40
0.0
  9
$CHAMFERD
 40
0.0
  9
$SKPOLY
 70
     1
  9
$TDCREATE
 40
2450094.323877083
  9
$TDUPDATE
 40
2455884.451280706
  9
$TDINDWG
 40
1.1489807407
  9
$TDUSRTIMER
 40
1.1489807407
  9
$USRTIMER
 70
     1
  9
$ANGBASE
 50
0.0
  9
$ANGDIR
 70
     0
  9
$PDMODE
 70
     0
  9
$PDSIZE
 40
0.0
  9
$PLINEWID
 40
0.0
  9
$COORDS
 70
     1
  9
$SPLFRAME
 70
     0
  9
$SPLINETYPE
 70
     6
  9
$SPLINESEGS
 70
     8
  9
$ATTDIA
 70
     0
  9
$ATTREQ
 70
     1
  9
$HANDLING
 70
     1
  9
$HANDSEED
  5
3FCF
  9
$SURFTAB1
 70
     6
  9
$SURFTAB2
 70
     6
  9
$SURFTYPE
 70
     6
  9
$SURFU
 70
     6
  9
$SURFV
 70
     6
  9
$UCSNAME
  2

  9
$UCSORG
 10
0.0
 20
0.0
 30
0.0
  9
$UCSXDIR
 10
1.0
 20
0.0
 30
0.0
  9
$UCSYDIR
 10
0.0
 20
1.0
 30
0.0
  9
$PUCSNAME
  2

  9
$PUCSORG
 10
0.0
 20
0.0
 30
0.0
  9
$PUCSXDIR
 10
1.0
 20
0.0
 30
0.0
  9
$PUCSYDIR
 10
0.0
 20
1.0
 30
0.0
  9
$USERI1
 70
     0
  9
$USERI2
 70
     0
  9
$USERI3
 70
     0
  9
$USERI4
 70
     0
  9
$USERI5
 70
     0
  9
$USERR1
 40
0.0
  9
$USERR2
 40
0.0
  9
$USERR3
 40
0.0
  9
$USERR4
 40
0.0
  9
$USERR5
 40
0.0
  9
$WORLDVIEW
 70
     1
  9
$SHADEDGE
 70
     3
  9
$SHADEDIF
 70
    70
  9
$TILEMODE
 70
     1
  9
$MAXACTVP
 70
    16
  9
$PINSBASE
 10
0.0
 20
0.0
 30
0.0
  9
$PLIMCHECK
 70
     0
  9
$PEXTMIN
 10
1.000000000000000E+20
 20
1.000000000000000E+20
 30
1.000000000000000E+20
  9
$PEXTMAX
 10
-1.000000000000000E+20
 20
-1.000000000000000E+20
 30
-1.000000000000000E+20
  9
$PLIMMIN
 10
0.0
 20
0.0
  9
$PLIMMAX
 10
12.0
 20
9.0
  9
$UNITMODE
 70
     0
  9
$VISRETAIN
 70
     0
  9
$PLINEGEN
 70
     0
  9
$PSLTSCALE
 70
     1
  9
$TREEDEPTH
 70
  3020
  9
$PICKSTYLE
 70
     1
  9
$CMLSTYLE
  2
STANDARD
  9
$CMLJUST
 70
     0
  9
$CMLSCALE
 40
1.0
  9
$PROXYGRAPHICS
 70
     1
  9
$MEASUREMENT
 70
     0
  0
ENDSEC
  0
SECTION
  2
CLASSES
  0
CLASS
  1
DICTIONARYVAR
  2
AcDbDictionaryVar
  3
ObjectDBX Classes
 90
        0
280
     0
281
     0
  0
CLASS
  1
ACDBDICTIONARYWDFLT
  2
AcDbDictionaryWithDefault
  3
ObjectDBX Classes
 90
        0
280
     0
281
     0
  0
CLASS
  1
TABLESTYLE
  2
AcDbTableStyle
  3
ObjectDBX Classes
 90
     4095
280
     0
281
     0
  0
CLASS
  1
SCALE
  2
AcDbScale
  3
ObjectDBX Classes
 90
     1153
280
     0
281
     0
  0
CLASS
  1
MATERIAL
  2
AcDbMaterial
  3
ObjectDBX Classes
 90
     1153
280
     0
281
     0
  0
CLASS
  1
VISUALSTYLE
  2
AcDbVisualStyle
  3
ObjectDBX Classes
 90
     4095
280
     0
281
     0
  0
CLASS
  1
CELLSTYLEMAP
  2
AcDbCellStyleMap
  3
ObjectDBX Classes
 90
     1152
280
     0
281
     0
  0
CLASS
  1
XRECORD
  2
AcDbXrecord
  3
AutoCAD 2000
 90
        0
280
     0
281
     0
  0
CLASS
  1
LWPOLYLINE
  2
AcDbPolyline
  3
AutoCAD 2000
 90
        0
280
     0
281
     1
  0
CLASS
  1
HATCH
  2
AcDbHatch
  3
AutoCAD 2000
 90
        0
280
     0
281
     1
  0
CLASS
  1
ACDBPLACEHOLDER
  2
AcDbPlaceHolder
  3
ObjectDBX Classes
 90
        0
280
     0
281
     0
  0
CLASS
  1
LAYOUT
  2
AcDbLayout
  3
ObjectDBX Classes
 90
        0
280
     0
281
     0
  0
ENDSEC
  0
SECTION
  2
TABLES
  0
TABLE
  2
VPORT
  5
8
330
0
100
AcDbSymbolTable
 70
     1
  0
VPORT
  5
3F0D
330
8
100
AcDbSymbolTableRecord
100
AcDbViewportTableRecord
  2
*ACTIVE
 70
     0
 10
0.0
 20
0.0
 11
1.0
 21
1.0
 12
126.3560262835206
 22
95.96942284960295
 13
0.0
 23
0.0
 14
1.0
 24
1.0
 15
0.0
 25
0.0
 16
0.0
 26
0.0
 36
1.0
 17
0.0
 27
0.0
 37
0.0
 40
184.9131816337133
 41
2.049679487179487
 42
50.0
 43
0.0
 44
0.0
 50
0.0
 51
0.0
 71
     0
 72
   100
 73
     1
 74
     0
 75
     0
 76
     0
 77
     0
 78
     1
  0
ENDTAB
  0
TABLE
  2
LTYPE
  5
5
330
0
100
AcDbSymbolTable
 70
     4
  0
LTYPE
  5
11
330
5
100
AcDbSymbolTableRecord
100
AcDbLinetypeTableRecord
  2
BYBLOCK
 70
     0
  3

 72
    65
 73
     0
 40
0.0
  0
LTYPE
  5
12
330
5
100
AcDbSymbolTableRecord
100
AcDbLinetypeTableRecord
  2
BYLAYER
 70
     0
  3

 72
    65
 73
     0
 40
0.0
  0
LTYPE
  5
13
330
5
100
AcDbSymbolTableRecord
100
AcDbLinetypeTableRecord
  2
CONTINUOUS
 70
     0
  3
Solid line
 72
    65
 73
     0
 40
0.0
  0
LTYPE
  5
27
330
5
100
AcDbSymbolTableRecord
100
AcDbLinetypeTableRecord
  2
HIDDEN
 70
     0
  3
__ __ __ __ __ __ __ __ __ __ __ __ __ __ __ __
 72
    65
 73
     2
 40
0.375
 49
0.25
 74
     0
 49
-0.125
 74
     0
  0
LTYPE
  5
28
330
5
100
AcDbSymbolTableRecord
100
AcDbLinetypeTableRecord
  2
HIDDEN2
 70
     0
  3
_ _ _ _ _ _ _ _ _ _ _ _ _ _ _ _ _ _ _ _ _ _ _ _
 72
    65
 73
     2
 40
0.1875
 49
0.125
 74
     0
 49
-0.0625
 74
     0
  0
LTYPE
  5
29
330
5
100
AcDbSymbolTableRecord
100
AcDbLinetypeTableRecord
  2
CENTER
 70
     0
  3
____ _ ____ _ ____ _ ____ _ ____ _ ____ _ ____ 
 72
    65
 73
     4
 40
2.0
 49
1.25
 74
     0
 49
-0.25
 74
     0
 49
0.25
 74
     0
 49
-0.25
 74
     0
  0
ENDTAB
  0
TABLE
  2
LAYER
  5
2
330
0
100
AcDbSymbolTable
 70
    15
  0
LAYER
  5
E
330
2
100
AcDbSymbolTableRecord
100
AcDbLayerTableRecord
  2
0
 70
     0
 62
     7
  6
CONTINUOUS
  0
LAYER
  5
2D
330
2
100
AcDbSymbolTableRecord
100
AcDbLayerTableRecord
  2
3
 70
     0
 62
     3
  6
CONTINUOUS
  0
LAYER
  5
2E
330
2
100
AcDbSymbolTableRecord
100
AcDbLayerTableRecord
  2
4
 70
     0
 62
     1
  6
CONTINUOUS
  0
LAYER
  5
2F
330
2
100
AcDbSymbolTableRecord
100
AcDbLayerTableRecord
  2
5
 70
     0
 62
     2
  6
CONTINUOUS
  0
LAYER
  5
30
330
2
100
AcDbSymbolTableRecord
100
AcDbLayerTableRecord
  2
6
 70
     0
 62
     4
  6
CONTINUOUS
  0
LAYER
  5
31
330
2
100
AcDbSymbolTableRecord
100
AcDbLayerTableRecord
  2
7
 70
     0
 62
     6
  6
CONTINUOUS
  0
LAYER
  5
32
330
2
100
AcDbSymbolTableRecord
100
AcDbLayerTableRecord
  2
DEFPOINTS
 70
     0
 62
     7
  6
CONTINUOUS
  0
LAYER
  5
38
330
2
100
AcDbSymbolTableRecord
100
AcDbLayerTableRecord
  2
DIM
 70
     0
 62
    40
  6
CONTINUOUS
  0
LAYER
  5
3C
330
2
100
AcDbSymbolTableRecord
100
AcDbLayerTableRecord
  2
CEN
 70
     0
 62
     2
  6
CENTER
  0
LAYER
  5
97B
330
2
100
AcDbSymbolTableRecord
100
AcDbLayerTableRecord
  2
TEXT
 70
     0
 62
     3
  6
CONTINUOUS
  0
LAYER
  5
97C
330
2
100
AcDbSymbolTableRecord
100
AcDbLayerTableRecord
  2
FRA
 70
     0
 62
     5
  6
CONTINUOUS
  0
LAYER
  5
97D
330
2
100
AcDbSymbolTableRecord
100
AcDbLayerTableRecord
  2
TBTEXT
 70
     0
 62
     4
  6
CONTINUOUS
  0
LAYER
  5
981
330
2
100
AcDbSymbolTableRecord
100
AcDbLayerTableRecord
  2
HATCH
 70
     0
 62
    60
  6
CONTINUOUS
  0
LAYER
  5
348B
330
2
100
AcDbSymbolTableRecord
100
AcDbLayerTableRecord
  2
010285
 70
     0
 62
     6
  6
CONTINUOUS
  0
LAYER
  5
348C
330
2
100
AcDbSymbolTableRecord
100
AcDbLayerTableRecord
  2
STEEL
 70
     0
 62
     4
  6
CONTINUOUS
  0
ENDTAB
  0
TABLE
  2
STYLE
  5
3
330
0
100
AcDbSymbolTable
 70
     4
  0
STYLE
  5
F
330
3
100
AcDbSymbolTableRecord
100
AcDbTextStyleTableRecord
  2
STANDARD
 70
     0
 40
0.0
 41
0.9
 50
0.0
 71
     0
 42
4.5
  3
romans.shx
  4

  0
STYLE
  5
25
330
3
100
AcDbSymbolTableRecord
100
AcDbTextStyleTableRecord
  2
ROMAND
 70
     0
 40
0.5
 41
1.0
 50
5.0
 71
     0
 42
0.5
  3
romand
  4

  0
STYLE
  5
305B
330
3
100
AcDbSymbolTableRecord
100
AcDbTextStyleTableRecord
  2
LEFT
 70
     0
 40
0.0
 41
0.9
 50
350.0
 71
     0
 42
4.5
  3
romans.shx
  4

  0
STYLE
  5
3A6D
330
3
100
AcDbSymbolTableRecord
100
AcDbTextStyleTableRecord
  2
SUPERFONT
 70
     0
 40
0.0
 41
0.9
 50
0.0
 71
     0
 42
0.09375
  3
romans.shx
  4

  0
ENDTAB
  0
TABLE
  2
VIEW
  5
6
330
0
100
AcDbSymbolTable
 70
     0
  0
ENDTAB
  0
TABLE
  2
UCS
  5
7
330
0
100
AcDbSymbolTable
 70
     0
  0
ENDTAB
  0
TABLE
  2
APPID
  5
9
330
0
100
AcDbSymbolTable
 70
     3
  0
APPID
  5
10
330
9
100
AcDbSymbolTableRecord
100
AcDbRegAppTableRecord
  2
ACAD
 70
     0
  0
APPID
  5
98F
330
9
100
AcDbSymbolTableRecord
100
AcDbRegAppTableRecord
  2
DRAWINGVARIABLESXDATA
 70
     0
  0
APPID
  5
3EE1
330
9
100
AcDbSymbolTableRecord
100
AcDbRegAppTableRecord
  2
ACAD_PSEXT
 70
     0
  0
ENDTAB
  0
TABLE
  2
DIMSTYLE
  5
A
330
0
100
AcDbSymbolTable
 70
     1
  0
DIMSTYLE
105
912
102
{ACAD_REACTORS
330
2EAB
330
2EBB
330
34F2
330
34E3
330
3522
330
318A
102
}
330
A
100
AcDbSymbolTableRecord
100
AcDbDimStyleTableRecord
  2
STANDARD
 70
     0
  3

  4

  5

  6

  7

 40
1.0
 41
0.18
 42
0.0625
 43
0.38
 44
0.18
 45
0.0
 46
0.0
 47
0.0
 48
0.0
140
0.18
141
0.09
142
0.0
143
25.4
144
1.0
145
0.0
146
1.0
147
0.09
 71
     0
 72
     0
 73
     1
 74
     1
 75
     0
 76
     0
 77
     0
 78
     0
170
     0
171
     2
172
     0
173
     0
174
     0
175
     0
176
     0
177
     0
178
     0
270
     2
271
     4
272
     4
273
     2
274
     2
340
F
275
     0
280
     0
281
     0
282
     0
283
     1
284
     0
285
     0
286
     0
287
     3
288
     0
  0
ENDTAB
  0
TABLE
  2
BLOCK_RECORD
  5
1
330
0
100
AcDbSymbolTable
 70
     7
  0
BLOCK_RECORD
  5
17
330
1
100
AcDbSymbolTableRecord
100
AcDbBlockTableRecord
  2
*MODEL_SPACE
  0
BLOCK_RECORD
  5
14
330
1
100
AcDbSymbolTableRecord
100
AcDbBlockTableRecord
  2
*PAPER_SPACE
  0
BLOCK_RECORD
  5
2F60
330
1
100
AcDbSymbolTableRecord
100
AcDbBlockTableRecord
  2
*D0
  0
BLOCK_RECORD
  5
2F6D
330
1
100
AcDbSymbolTableRecord
100
AcDbBlockTableRecord
  2
*D1
  0
BLOCK_RECORD
  5
322F
330
1
100
AcDbSymbolTableRecord
100
AcDbBlockTableRecord
  2
*D2
  0
BLOCK_RECORD
  5
34E4
330
1
100
AcDbSymbolTableRecord
100
AcDbBlockTableRecord
  2
*D3
  0
BLOCK_RECORD
  5
34F3
330
1
100
AcDbSymbolTableRecord
100
AcDbBlockTableRecord
  2
*D4
  0
BLOCK_RECORD
  5
3523
330
1
100
AcDbSymbolTableRecord
100
AcDbBlockTableRecord
  2
*D5
  0
BLOCK_RECORD
  5
3D59
330
1
100
AcDbSymbolTableRecord
100
AcDbBlockTableRecord
  2
SSLOGO_NEW
  0
ENDTAB
  0
ENDSEC
  0
SECTION
  2
BLOCKS
  0
BLOCK
  5
3F
330
17
100
AcDbEntity
  8
0
100
AcDbBlockBegin
  2
*MODEL_SPACE
 70
     0
 10
0.0
 20
0.0
 30
0.0
  3
*MODEL_SPACE
  1

  0
ENDBLK
  5
40
330
17
100
AcDbEntity
  8
0
100
AcDbBlockEnd
  0
BLOCK
  5
3D
330
14
100
AcDbEntity
 67
     1
  8
0
100
AcDbBlockBegin
  2
*PAPER_SPACE
 70
     0
 10
0.0
 20
0.0
 30
0.0
  3
*PAPER_SPACE
  1

  0
ENDBLK
  5
3E
330
14
100
AcDbEntity
 67
     1
  8
0
100
AcDbBlockEnd
  0
BLOCK
  5
2F61
330
2F60
100
AcDbEntity
  8
0
100
AcDbBlockBegin
  2
*D0
 70
     1
 10
0.0
 20
0.0
 30
0.0
  3
*D0
  1

  0
LINE
  5
3E99
330
2F60
100
AcDbEntity
  8
DIM
100
AcDbLine
 10
31.46198676968186
 20
89.07803080168568
 30
0.0
 11
31.46198676968186
 21
77.49709646321293
 31
0.0
  0
LINE
  5
3E9A
330
2F60
100
AcDbEntity
  8
DIM
100
AcDbLine
 10
103.4619867696818
 20
89.07803080168568
 30
0.0
 11
103.4619867696818
 21
77.49709646321293
 31
0.0
  0
LINE
  5
3E9B
330
2F60
100
AcDbEntity
  8
DIM
100
AcDbLine
 10
33.62198676968186
 20
79.65709646321292
 30
0.0
 11
46.706443912539
 21
79.65709646321292
 31
0.0
  0
LINE
  5
3E9C
330
2F60
100
AcDbEntity
  8
DIM
100
AcDbLine
 10
101.3019867696818
 20
79.65709646321292
 30
0.0
 11
88.2175296268247
 21
79.65709646321292
 31
0.0
  0
SOLID
  5
3E9D
330
2F60
100
AcDbEntity
  8
DIM
100
AcDbTrace
 10
33.62198676968186
 20
80.01709646321294
 30
0.0
 11
33.62198676968186
 21
79.29709646321292
 31
0.0
 12
31.46198676968186
 22
79.65709646321292
 32
0.0
 13
31.46198676968186
 23
79.65709646321292
 33
0.0
  0
SOLID
  5
3E9E
330
2F60
100
AcDbEntity
  8
DIM
100
AcDbTrace
 10
101.3019867696818
 20
80.01709646321294
 30
0.0
 11
101.3019867696818
 21
79.29709646321292
 31
0.0
 12
103.4619867696818
 22
79.65709646321292
 32
0.0
 13
103.4619867696818
 23
79.65709646321292
 33
0.0
  0
MTEXT
  5
3E9F
330
2F60
100
AcDbEntity
  8
DIM
 62
    30
100
AcDbMText
 10
67.46198676968186
 20
79.65709646321292
 30
0.0
 40
2.256
 41
0.0
 71
     5
 72
     1
  1
\A1;OPENING WIDTH ______
  0
POINT
  5
3EA0
330
2F60
100
AcDbEntity
  8
DEFPOINTS
 62
     0
100
AcDbPoint
 10
31.46198676968186
 20
91.2380308016857
 30
0.0
  0
POINT
  5
3EA1
330
2F60
100
AcDbEntity
  8
DEFPOINTS
 62
     0
100
AcDbPoint
 10
103.4619867696818
 20
91.2380308016857
 30
0.0
  0
POINT
  5
3EA2
330
2F60
100
AcDbEntity
  8
DEFPOINTS
 62
     0
100
AcDbPoint
 10
103.4619867696818
 20
79.65709646321292
 30
0.0
  0
ENDBLK
  5
2F6C
330
2F60
100
AcDbEntity
  8
0
100
AcDbBlockEnd
  0
BLOCK
  5
2F6E
330
2F6D
100
AcDbEntity
  8
0
100
AcDbBlockBegin
  2
*D1
 70
     1
 10
0.0
 20
0.0
 30
0.0
  3
*D1
  1

  0
LINE
  5
3E8F
330
2F6D
100
AcDbEntity
  8
DIM
100
AcDbLine
 10
29.30198676968186
 20
91.2380308016857
 30
0.0
 11
16.73640368030457
 21
91.2380308016857
 31
0.0
  0
LINE
  5
3E90
330
2F6D
100
AcDbEntity
  8
DIM
100
AcDbLine
 10
29.30198676968186
 20
178.1335412370937
 30
0.0
 11
16.73640368030459
 21
178.1335412370937
 31
0.0
  0
LINE
  5
3E91
330
2F6D
100
AcDbEntity
  8
DIM
100
AcDbLine
 10
18.89640368030457
 20
93.39803080168568
 30
0.0
 11
18.89640368030458
 21
121.2826022302775
 31
0.0
  0
LINE
  5
3E92
330
2F6D
100
AcDbEntity
  8
DIM
100
AcDbLine
 10
18.89640368030459
 20
175.9735412370937
 30
0.0
 11
18.89640368030458
 21
137.1934593731346
 31
0.0
  0
SOLID
  5
3E93
330
2F6D
100
AcDbEntity
  8
DIM
100
AcDbTrace
 10
18.53640368030457
 20
93.39803080168568
 30
0.0
 11
19.25640368030457
 21
93.39803080168568
 31
0.0
 12
18.89640368030457
 22
91.2380308016857
 32
0.0
 13
18.89640368030457
 23
91.2380308016857
 33
0.0
  0
SOLID
  5
3E94
330
2F6D
100
AcDbEntity
  8
DIM
100
AcDbTrace
 10
18.53640368030459
 20
175.9735412370937
 30
0.0
 11
19.25640368030459
 21
175.9735412370937
 31
0.0
 12
18.89640368030459
 22
178.1335412370937
 32
0.0
 13
18.89640368030459
 23
178.1335412370937
 33
0.0
  0
MTEXT
  5
3E95
330
2F6D
100
AcDbEntity
  8
DIM
 62
    30
100
AcDbMText
 10
18.89640368030456
 20
129.238030801706
 30
0.0
 40
2.256
 41
0.0
 71
     5
 72
     1
  1
\A1;OPENING\PHEIGHT\P \P______
  0
POINT
  5
3E96
330
2F6D
100
AcDbEntity
  8
DEFPOINTS
 62
     0
100
AcDbPoint
 10
31.46198676968186
 20
91.2380308016857
 30
0.0
  0
POINT
  5
3E97
330
2F6D
100
AcDbEntity
  8
DEFPOINTS
 62
     0
100
AcDbPoint
 10
31.46198676968186
 20
178.1335412370937
 30
0.0
  0
POINT
  5
3E98
330
2F6D
100
AcDbEntity
  8
DEFPOINTS
 62
     0
100
AcDbPoint
 10
18.89640368030459
 20
178.1335412370937
 30
0.0
  0
ENDBLK
  5
2F79
330
2F6D
100
AcDbEntity
  8
0
100
AcDbBlockEnd
  0
BLOCK
  5
323A
330
322F
100
AcDbEntity
  8
0
100
AcDbBlockBegin
  2
*D2
 70
     1
 10
0.0
 20
0.0
 30
0.0
  3
*D2
  1

  0
LINE
  5
3EA5
330
322F
100
AcDbEntity
  8
DIM
100
AcDbLine
 10
212.5628979429896
 20
56.02442515876661
 30
0.0
 11
224.5967962507759
 21
56.02442515876661
 31
0.0
  0
LINE
  5
3EA6
330
322F
100
AcDbEntity
  8
DIM
100
AcDbLine
 10
213.055566438755
 20
74.00403949771658
 30
0.0
 11
224.5967962507759
 21
74.00403949771656
 31
0.0
  0
LINE
  5
3EA7
330
322F
100
AcDbEntity
  8
DIM
100
AcDbLine
 10
222.4367962507758
 20
58.18442515876661
 30
0.0
 11
222.4367962507758
 21
58.32625985326776
 31
0.0
  0
LINE
  5
3EA8
330
322F
100
AcDbEntity
  8
DIM
100
AcDbLine
 10
222.4367962507759
 20
71.84403949771658
 30
0.0
 11
222.4367962507759
 21
70.4771169961249
 31
0.0
  0
SOLID
  5
3EA9
330
322F
100
AcDbEntity
  8
DIM
100
AcDbTrace
 10
222.0767962507758
 20
58.18442515876661
 30
0.0
 11
222.7967962507758
 21
58.18442515876661
 31
0.0
 12
222.4367962507758
 22
56.02442515876661
 32
0.0
 13
222.4367962507758
 23
56.02442515876661
 33
0.0
  0
SOLID
  5
3EAA
330
322F
100
AcDbEntity
  8
DIM
100
AcDbTrace
 10
222.0767962507759
 20
71.84403949771658
 30
0.0
 11
222.7967962507759
 21
71.84403949771658
 31
0.0
 12
222.4367962507759
 22
74.00403949771658
 32
0.0
 13
222.4367962507759
 23
74.00403949771658
 33
0.0
  0
MTEXT
  5
3EAB
330
322F
100
AcDbEntity
  8
DIM
 62
    30
100
AcDbMText
 10
222.4367962507758
 20
64.40168842469637
 30
0.0
 40
2.256
 41
0.0
 71
     5
 72
     1
  1
\A1;HEIGHT\P\P_____
  0
POINT
  5
3EAC
330
322F
100
AcDbEntity
  8
DEFPOINTS
 62
     0
100
AcDbPoint
 10
210.4028979429896
 20
56.02442515876661
 30
0.0
  0
POINT
  5
3EAD
330
322F
100
AcDbEntity
  8
DEFPOINTS
 62
     0
100
AcDbPoint
 10
210.8955664387549
 20
74.00403949771658
 30
0.0
  0
POINT
  5
3EAE
330
322F
100
AcDbEntity
  8
DEFPOINTS
 62
     0
100
AcDbPoint
 10
222.4367962507759
 20
74.00403949771658
 30
0.0
  0
ENDBLK
  5
323B
330
322F
100
AcDbEntity
  8
0
100
AcDbBlockEnd
  0
BLOCK
  5
34F0
330
34E4
100
AcDbEntity
  8
0
100
AcDbBlockBegin
  2
*D3
 70
     1
 10
0.0
 20
0.0
 30
0.0
  3
*D3
  1

  0
LINE
  5
3EAF
330
34E4
100
AcDbEntity
  8
DIM
100
AcDbLine
 10
102.836985810214
 20
63.10673017471515
 30
0.0
 11
102.836985810214
 21
69.72661182713355
 31
0.0
  0
ARC
  5
3EB0
330
34E4
100
AcDbEntity
  8
DIM
100
AcDbCircle
 10
102.836985810214
 20
56.31711141620311
 30
0.0
 40
11.24950041093044
100
AcDbArc
 50
101.0182481532513
 51
115.5065689915908
  0
ARC
  5
3EB1
330
34E4
100
AcDbEntity
  8
DIM
100
AcDbCircle
 10
102.836985810214
 20
56.31711141620311
 30
0.0
 40
11.24950041093044
100
AcDbArc
 50
149.2807802246063
 51
168.9817636965333
  0
SOLID
  5
3EB2
330
34E4
100
AcDbEntity
  8
DIM
100
AcDbTrace
 10
100.6524014822203
 20
67.71757975049684
 30
0.0
 11
100.7215245518319
 21
67.00090548610089
 31
0.0
 12
102.836985810214
 22
67.56661182713353
 32
0.0
 13
102.836985810214
 23
67.56661182713353
 33
0.0
  0
SOLID
  5
3EB3
330
34E4
100
AcDbEntity
  8
DIM
100
AcDbTrace
 10
92.15319130280147
 20
58.43257046498678
 30
0.0
 11
91.43651702410966
 21
58.50169338637738
 31
0.0
 12
91.5874853992838
 22
56.31710908960665
 32
0.0
 13
91.5874853992838
 23
56.31710908960665
 33
0.0
  0
MTEXT
  5
3EB4
330
34E4
100
AcDbEntity
  8
DIM
 62
    30
100
AcDbMText
 10
94.88238696210819
 20
64.27170861915675
 30
0.0
 40
2.256
 41
0.0
 71
     5
 72
     1
  1
\A1;90°
  0
POINT
  5
3EB5
330
34E4
100
AcDbEntity
  8
DEFPOINTS
 62
     0
100
AcDbPoint
 10
97.21223493311825
 20
66.05946416418624
 30
0.0
  0
POINT
  5
3EB6
330
34E4
100
AcDbEntity
  8
DEFPOINTS
 62
     0
100
AcDbPoint
 10
102.836985810214
 20
51.63761180736819
 30
0.0
  0
POINT
  5
3EB7
330
34E4
100
AcDbEntity
  8
DEFPOINTS
 62
     0
100
AcDbPoint
 10
101.4264138378879
 20
56.31711112447177
 30
0.0
  0
POINT
  5
3EB8
330
34E4
100
AcDbEntity
  8
DEFPOINTS
 62
     0
100
AcDbPoint
 10
68.19840814185493
 20
56.31710425233013
 30
0.0
  0
POINT
  5
3EB9
330
34E4
100
AcDbEntity
  8
DEFPOINTS
 62
     0
100
AcDbPoint
 10
102.836985810214
 20
60.94673017471514
 30
0.0
  0
ENDBLK
  5
34F1
330
34E4
100
AcDbEntity
  8
0
100
AcDbBlockEnd
  0
BLOCK
  5
34FF
330
34F3
100
AcDbEntity
  8
0
100
AcDbBlockBegin
  2
*D4
 70
     1
 10
0.0
 20
0.0
 30
0.0
  3
*D4
  1

  0
LINE
  5
3EBA
330
34F3
100
AcDbEntity
  8
DIM
100
AcDbLine
 10
102.8369858102139
 20
49.47761180736816
 30
0.0
 11
102.8369858102139
 21
42.85773021792464
 31
0.0
  0
ARC
  5
3EBB
330
34F3
100
AcDbEntity
  8
DIM
100
AcDbCircle
 10
102.8369858102139
 20
56.26723056588021
 30
0.0
 40
11.24950034795556
100
AcDbArc
 50
191.0182363653377
 51
210.7192197021644
  0
ARC
  5
3EBC
330
34F3
100
AcDbEntity
  8
DIM
100
AcDbCircle
 10
102.8369858102139
 20
56.26723056588021
 30
0.0
 40
11.24950034795556
100
AcDbArc
 50
244.4934311066688
 51
258.9817517848775
  0
SOLID
  5
3EBD
330
34F3
100
AcDbEntity
  8
DIM
100
AcDbTrace
 10
91.43651708826403
 20
54.0826485956244
 30
0.0
 11
92.1531913669185
 21
54.15177151740194
 31
0.0
 12
91.58748546225863
 22
56.26723289247665
 32
0.0
 13
91.58748546225863
 23
56.26723289247665
 33
0.0
  0
SOLID
  5
3EBE
330
34F3
100
AcDbEntity
  8
DIM
100
AcDbTrace
 10
100.7215245521373
 20
45.58343656009948
 30
0.0
 11
100.6524014821388
 21
44.86676229574086
 31
0.0
 12
102.8369858102139
 22
45.01773021792463
 32
0.0
 13
102.8369858102139
 23
45.01773021792463
 33
0.0
  0
MTEXT
  5
3EBF
330
34F3
100
AcDbEntity
  8
DIM
 62
    30
100
AcDbMText
 10
94.88238700663815
 20
48.3126334074565
 30
0.0
 40
2.256
 41
0.0
 71
     5
 72
     1
  1
\A1;90°
  0
POINT
  5
3EC0
330
34F3
100
AcDbEntity
  8
DEFPOINTS
 62
     0
100
AcDbPoint
 10
93.09463195347051
 20
50.64248173516358
 30
0.0
  0
POINT
  5
3EC1
330
34F3
100
AcDbEntity
  8
DEFPOINTS
 62
     0
100
AcDbPoint
 10
102.8369858102139
 20
60.94673017471513
 30
0.0
  0
POINT
  5
3EC2
330
34F3
100
AcDbEntity
  8
DEFPOINTS
 62
     0
100
AcDbPoint
 10
101.4264138378879
 20
56.26723085761155
 30
0.0
  0
POINT
  5
3EC3
330
34F3
100
AcDbEntity
  8
DEFPOINTS
 62
     0
100
AcDbPoint
 10
68.19840814185491
 20
56.26723772975317
 30
0.0
  0
POINT
  5
3EC4
330
34F3
100
AcDbEntity
  8
DEFPOINTS
 62
     0
100
AcDbPoint
 10
102.8369858102139
 20
51.63761180736816
 30
0.0
  0
ENDBLK
  5
3500
330
34F3
100
AcDbEntity
  8
0
100
AcDbBlockEnd
  0
BLOCK
  5
352E
330
3523
100
AcDbEntity
  8
0
100
AcDbBlockBegin
  2
*D5
 70
     1
 10
0.0
 20
0.0
 30
0.0
  3
*D5
  1

  0
LINE
  5
3EC5
330
3523
100
AcDbEntity
  8
DIM
100
AcDbLine
 10
68.19840814185493
 20
58.47710425233014
 30
0.0
 11
68.19840814185493
 21
65.68871293527278
 31
0.0
  0
LINE
  5
3EC6
330
3523
100
AcDbEntity
  8
DIM
100
AcDbLine
 10
66.69843535706848
 20
58.47710425233014
 30
0.0
 11
66.69843535706848
 21
65.68871293527278
 31
0.0
  0
LINE
  5
3EC7
330
3523
100
AcDbEntity
  8
DIM
100
AcDbLine
 10
70.35840814185492
 20
63.52871293527278
 30
0.0
 11
72.51840814185493
 21
63.52871293527278
 31
0.0
  0
LINE
  5
3EC8
330
3523
100
AcDbEntity
  8
DIM
100
AcDbLine
 10
64.53843535706848
 20
63.52871293527278
 30
0.0
 11
62.37843535706848
 21
63.52871293527278
 31
0.0
  0
SOLID
  5
3EC9
330
3523
100
AcDbEntity
  8
DIM
100
AcDbTrace
 10
70.35840814185492
 20
63.88871293527278
 30
0.0
 11
70.35840814185492
 21
63.16871293527277
 31
0.0
 12
68.19840814185493
 22
63.52871293527278
 32
0.0
 13
68.19840814185493
 23
63.52871293527278
 33
0.0
  0
SOLID
  5
3ECA
330
3523
100
AcDbEntity
  8
DIM
100
AcDbTrace
 10
64.53843535706848
 20
63.88871293527278
 30
0.0
 11
64.53843535706848
 21
63.16871293527277
 31
0.0
 12
66.69843535706848
 22
63.52871293527278
 32
0.0
 13
66.69843535706848
 23
63.52871293527278
 33
0.0
  0
MTEXT
  5
3ECB
330
3523
100
AcDbEntity
  8
DIM
 62
    30
100
AcDbMText
 10
54.14369249992562
 20
63.52871293527278
 30
0.0
 40
2.256
 41
0.0
 71
     5
 72
     1
  1
\A1;1/2" GAP
  0
POINT
  5
3ECC
330
3523
100
AcDbEntity
  8
DEFPOINTS
 62
     0
100
AcDbPoint
 10
68.19840814185493
 20
56.31710425233014
 30
0.0
  0
POINT
  5
3ECD
330
3523
100
AcDbEntity
  8
DEFPOINTS
 62
     0
100
AcDbPoint
 10
66.69843535706848
 20
56.31710425233014
 30
0.0
  0
POINT
  5
3ECE
330
3523
100
AcDbEntity
  8
DEFPOINTS
 62
     0
100
AcDbPoint
 10
66.69843535706848
 20
63.52871293527278
 30
0.0
  0
ENDBLK
  5
352F
330
3523
100
AcDbEntity
  8
0
100
AcDbBlockEnd
  0
BLOCK
  5
3D89
330
3D59
100
AcDbEntity
  8
0
100
AcDbBlockBegin
  2
SSLOGO_NEW
 70
     0
 10
0.0
 20
0.0
 30
0.0
  3
SSLOGO_NEW
  1

  0
LWPOLYLINE
  5
3D5A
330
3D59
100
AcDbEntity
  8
TBTEXT
100
AcDbPolyline
 90
      461
 70
     0
 43
0.0027092351736002
 10
9.109773681354515
 20
1.805280153984368
 10
9.109773681354515
 20
1.801216301223967
 10
9.107064446180916
 20
1.799861683637168
 10
9.107064446180916
 20
1.797152448463568
 10
9.105709828594115
 20
1.794443213289967
 10
9.104355211007315
 20
1.793088595703167
 10
9.104355211007315
 20
1.786315507769167
 10
9.104355211007315
 20
1.779542419835166
 10
9.103000593420514
 20
1.771414714314366
 10
9.104355211007315
 20
1.763287008793565
 10
9.105709828594115
 20
1.760577773619965
 10
9.107064446180916
 20
1.759223156033166
 10
9.107064446180916
 20
1.752450068099165
 10
9.107064446180916
 20
1.745676980165165
 10
9.107064446180916
 20
1.738903892231165
 10
9.107064446180916
 20
1.734840039470764
 10
9.108419063767714
 20
1.732130804297164
 10
9.108419063767714
 20
1.725357716363164
 10
9.107064446180916
 20
1.724003098776363
 10
9.108419063767714
 20
1.721293863602763
 10
9.109773681354515
 20
1.719939246015964
 10
9.111128298941315
 20
1.717230010842363
 10
9.111128298941315
 20
1.714520775668763
 10
9.111128298941315
 20
1.709102305321562
 10
9.112482916528116
 20
1.706393070147963
 10
9.113837534114916
 20
1.700974599800762
 10
9.116546769288515
 20
1.699619982213962
 10
9.117901386875316
 20
1.700974599800762
 10
9.116546769288515
 20
1.703683834974362
 10
9.115192151701715
 20
1.707747687734762
 10
9.113837534114916
 20
1.714520775668763
 10
9.112482916528116
 20
1.717230010842363
 10
9.112482916528116
 20
1.719939246015964
 10
9.111128298941315
 20
1.725357716363164
 10
9.111128298941315
 20
1.729421569123563
 10
9.111128298941315
 20
1.732130804297164
 10
9.109773681354515
 20
1.734840039470764
 10
9.109773681354515
 20
1.738903892231165
 10
9.111128298941315
 20
1.742967744991564
 10
9.113837534114916
 20
1.741613127404764
 10
9.113837534114916
 20
1.736194657057564
 10
9.113837534114916
 20
1.730776186710364
 10
9.115192151701715
 20
1.726712333949964
 10
9.116546769288515
 20
1.724003098776363
 10
9.116546769288515
 20
1.717230010842363
 10
9.119256004462116
 20
1.710456922908362
 10
9.120610622048916
 20
1.705038452561162
 10
9.123319857222516
 20
1.698265364627162
 10
9.126029092396116
 20
1.694201511866761
 10
9.128738327569716
 20
1.688783041519561
 10
9.128738327569716
 20
1.680655335998761
 10
9.130092945156516
 20
1.67659148323836
 10
9.130092945156516
 20
1.67659148323836
 10
9.134156797916917
 20
1.672527630477961
 10
9.139575268264117
 20
1.667109160130761
 10
9.139575268264117
 20
1.667109160130761
 10
9.144993738611317
 20
1.65898145460996
 10
9.150412208958517
 20
1.654917601849559
 10
9.158539914479318
 20
1.64814451391556
 10
9.162603767239718
 20
1.646789896328759
 10
9.165313002413319
 20
1.64814451391556
 10
9.169376855173718
 20
1.646789896328759
 10
9.17208609034732
 20
1.642726043568359
 10
9.174795325520918
 20
1.638662190807958
 10
9.17750456069452
 20
1.635952955634358
 10
9.18563226621532
 20
1.633243720460758
 10
9.19105073656252
 20
1.629179867700358
 10
9.19646920690972
 20
1.625116014939957
 10
9.19917844208332
 20
1.622406779766357
 10
9.20324229484372
 20
1.618342927005957
 10
9.20459691243052
 20
1.614279074245557
 10
9.205951530017321
 20
1.610215221485157
 10
9.211370000364521
 20
1.607505986311557
 10
9.212724617951322
 20
1.608860603898357
 10
9.21407923553812
 20
1.606151368724757
 10
9.219497705885322
 20
1.603442133551157
 10
9.224916176232522
 20
1.600732898377557
 10
9.230334646579722
 20
1.598023663203956
 10
9.234398499340122
 20
1.599378280790756
 10
9.234398499340122
 20
1.602087515964357
 10
9.239816969687324
 20
1.602087515964357
 10
9.242526204860923
 20
1.599378280790756
 10
9.245235440034522
 20
1.596669045617156
 10
9.247944675208123
 20
1.591250575269956
 10
9.249299292794923
 20
1.588541340096356
 10
9.250653910381724
 20
1.583122869749155
 10
9.250653910381724
 20
1.579059016988755
 10
9.246590057621324
 20
1.576349781815155
 10
9.245235440034522
 20
1.574995164228355
 10
9.242526204860923
 20
1.572285929054754
 10
9.242526204860923
 20
1.568222076294355
 10
9.242526204860923
 20
1.562803605947155
 10
9.245235440034522
 20
1.558739753186754
 10
9.242526204860923
 20
1.557385135599954
 10
9.245235440034522
 20
1.554675900426354
 10
9.246590057621324
 20
1.549257430079154
 10
9.253363145555323
 20
1.546548194905553
 10
9.257426998315724
 20
1.541129724558353
 10
9.265554703836523
 20
1.537065871797953
 10
9.270973174183723
 20
1.533002019037552
 10
9.277746262117725
 20
1.527583548690352
 10
9.280455497291324
 20
1.524874313516752
 10
9.289937820398926
 20
1.523519695929953
 10
9.299420143506525
 20
1.520810460756352
 10
9.304838613853727
 20
1.519455843169552
 10
9.308902466614127
 20
1.516746607995952
 10
9.312966319374526
 20
1.512682755235552
 10
9.317030172134926
 20
1.507264284888351
 10
9.318384789721728
 20
1.50049119695435
 10
9.322448642482128
 20
1.499136579367551
 10
9.319739407308527
 20
1.496427344193951
 10
9.323803260068926
 20
1.49507272660715
 10
9.329221730416128
 20
1.49507272660715
 10
9.334640200763328
 20
1.49507272660715
 10
9.342767906284127
 20
1.49507272660715
 10
9.34954099421813
 20
1.49507272660715
 10
9.35631408215213
 20
1.496427344193951
 10
9.36308717008613
 20
1.49778196178075
 10
9.36850564043333
 20
1.499136579367551
 10
9.37798796354093
 20
1.499136579367551
 10
9.37798796354093
 20
1.503200432127951
 10
9.383406433888132
 20
1.505909667301551
 10
9.38882490423533
 20
1.507264284888351
 10
9.394243374582532
 20
1.509973520061952
 10
9.401016462516532
 20
1.512682755235552
 10
9.405080315276932
 20
1.518101225582752
 10
9.409144168037331
 20
1.522165078343152
 10
9.413208020797732
 20
1.527583548690352
 10
9.417271873558132
 20
1.528938166277153
 10
9.424044961492132
 20
1.533002019037552
 10
9.426754196665733
 20
1.535711254211153
 10
9.425399579078933
 20
1.538420489384753
 10
9.429463431839332
 20
1.537065871797953
 10
9.436236519773333
 20
1.539775106971553
 10
9.441654990120535
 20
1.545193577318753
 10
9.444364225294134
 20
1.553321282839553
 10
9.444364225294134
 20
1.558739753186754
 10
9.445718842880934
 20
1.561448988360354
 10
9.448428078054535
 20
1.564158223533954
 10
9.448428078054535
 20
1.566867458707554
 10
9.451137313228134
 20
1.570931311467955
 10
9.455201165988536
 20
1.577704399401955
 10
9.459265018748935
 20
1.583122869749155
 10
9.460619636335736
 20
1.588541340096356
 10
9.461974253922534
 20
1.593959810443556
 10
9.459265018748935
 20
1.596669045617156
 10
9.456555783575334
 20
1.595314428030357
 10
9.447073460467735
 20
1.596669045617156
 10
9.440300372533734
 20
1.595314428030357
 10
9.436236519773333
 20
1.593959810443556
 10
9.429463431839332
 20
1.591250575269956
 10
9.418626491144932
 20
1.589895957683156
 10
9.407789550450532
 20
1.589895957683156
 10
9.403725697690131
 20
1.589895957683156
 10
9.396952609756132
 20
1.584477487335956
 10
9.39559799216933
 20
1.587186722509556
 10
9.39559799216933
 20
1.589895957683156
 10
9.390179521822132
 20
1.588541340096356
 10
9.387470286648531
 20
1.589895957683156
 10
9.387470286648531
 20
1.595314428030357
 10
9.383406433888132
 20
1.598023663203956
 10
9.37934258112773
 20
1.600732898377557
 10
9.376633345954131
 20
1.603442133551157
 10
9.36715102284653
 20
1.603442133551157
 10
9.36173255249933
 20
1.604796751137956
 10
9.357668699738928
 20
1.603442133551157
 10
9.352250229391728
 20
1.602087515964357
 10
9.34954099421813
 20
1.602087515964357
 10
9.342767906284127
 20
1.603442133551157
 10
9.340058671110528
 20
1.607505986311557
 10
9.337349435936927
 20
1.608860603898357
 10
9.330576348002927
 20
1.608860603898357
 10
9.322448642482128
 20
1.612924456658757
 10
9.319739407308527
 20
1.614279074245557
 10
9.314320936961327
 20
1.615633691832358
 10
9.308902466614127
 20
1.614279074245557
 10
9.304838613853727
 20
1.612924456658757
 10
9.302129378680126
 20
1.612924456658757
 10
9.299420143506525
 20
1.612924456658757
 10
9.296710908332926
 20
1.615633691832358
 10
9.295356290746126
 20
1.611569839071957
 10
9.289937820398926
 20
1.612924456658757
 10
9.287228585225323
 20
1.615633691832358
 10
9.285873967638524
 20
1.615633691832358
 10
9.283164732464925
 20
1.614279074245557
 10
9.281810114878123
 20
1.616988309419157
 10
9.279100879704524
 20
1.618342927005957
 10
9.276391644530923
 20
1.616988309419157
 10
9.275037026944124
 20
1.612924456658757
 10
9.276391644530923
 20
1.607505986311557
 10
9.275037026944124
 20
1.606151368724757
 10
9.272327791770524
 20
1.607505986311557
 10
9.272327791770524
 20
1.611569839071957
 10
9.270973174183723
 20
1.615633691832358
 10
9.272327791770524
 20
1.619697544592757
 10
9.266909321423324
 20
1.619697544592757
 10
9.262845468662924
 20
1.615633691832358
 10
9.257426998315724
 20
1.614279074245557
 10
9.254717763142123
 20
1.612924456658757
 10
9.252008527968522
 20
1.611569839071957
 10
9.252008527968522
 20
1.604796751137956
 10
9.247944675208123
 20
1.600732898377557
 10
9.243880822447723
 20
1.603442133551157
 10
9.238462352100521
 20
1.607505986311557
 10
9.233043881753323
 20
1.607505986311557
 10
9.230334646579722
 20
1.606151368724757
 10
9.224916176232522
 20
1.607505986311557
 10
9.22085232347212
 20
1.608860603898357
 10
9.216788470711721
 20
1.611569839071957
 10
9.21543385312492
 20
1.616988309419157
 10
9.21407923553812
 20
1.623761397353158
 10
9.212724617951322
 20
1.630534485287157
 10
9.212724617951322
 20
1.635952955634358
 10
9.205951530017321
 20
1.638662190807958
 10
9.19646920690972
 20
1.638662190807958
 10
9.19105073656252
 20
1.640016808394759
 10
9.19240535414932
 20
1.646789896328759
 10
9.18969611897572
 20
1.652208366675959
 10
9.18969611897572
 20
1.657626837023159
 10
9.19240535414932
 20
1.65898145460996
 10
9.19240535414932
 20
1.66439992495716
 10
9.19240535414932
 20
1.667109160130761
 10
9.18834150138892
 20
1.66575454254396
 10
9.181568413454919
 20
1.66575454254396
 10
9.17885917828132
 20
1.66169068978356
 10
9.176149943107719
 20
1.657626837023159
 10
9.173440707934118
 20
1.65627221943636
 10
9.165313002413319
 20
1.65898145460996
 10
9.158539914479318
 20
1.66169068978356
 10
9.155830679305717
 20
1.66846377771756
 10
9.153121444132118
 20
1.675236865651561
 10
9.151766826545318
 20
1.680655335998761
 10
9.150412208958517
 20
1.684719188759161
 10
9.151766826545318
 20
1.687428423932762
 10
9.153121444132118
 20
1.691492276693161
 10
9.154476061718919
 20
1.699619982213962
 10
9.157185296892518
 20
1.705038452561162
 10
9.16124914965292
 20
1.709102305321562
 10
9.165313002413319
 20
1.711811540495163
 10
9.173440707934118
 20
1.709102305321562
 10
9.17885917828132
 20
1.706393070147963
 10
9.18292303104172
 20
1.706393070147963
 10
9.181568413454919
 20
1.710456922908362
 10
9.18969611897572
 20
1.710456922908362
 10
9.20053305967012
 20
1.707747687734762
 10
9.20730614760412
 20
1.703683834974362
 10
9.21001538277772
 20
1.699619982213962
 10
9.21001538277772
 20
1.695556129453562
 10
9.211370000364521
 20
1.690137659106361
 10
9.21543385312492
 20
1.686073806345961
 10
9.219497705885322
 20
1.683364571172361
 10
9.222206941058921
 20
1.686073806345961
 10
9.22085232347212
 20
1.692846894279962
 10
9.218143088298522
 20
1.699619982213962
 10
9.21543385312492
 20
1.703683834974362
 10
9.21407923553812
 20
1.709102305321562
 10
9.212724617951322
 20
1.714520775668763
 10
9.219497705885322
 20
1.717230010842363
 10
9.223561558645722
 20
1.724003098776363
 10
9.227625411406121
 20
1.728066951536764
 10
9.231689264166523
 20
1.730776186710364
 10
9.235753116926922
 20
1.732130804297164
 10
9.235753116926922
 20
1.738903892231165
 10
9.235753116926922
 20
1.744322362578365
 10
9.234398499340122
 20
1.747031597751965
 10
9.233043881753323
 20
1.751095450512365
 10
9.237107734513723
 20
1.749740832925565
 10
9.239816969687324
 20
1.752450068099165
 10
9.238462352100521
 20
1.755159303272765
 10
9.242526204860923
 20
1.756513920859565
 10
9.242526204860923
 20
1.760577773619965
 10
9.245235440034522
 20
1.764641626380366
 10
9.249299292794923
 20
1.765996243967166
 10
9.254717763142123
 20
1.768705479140765
 10
9.257426998315724
 20
1.771414714314366
 10
9.260136233489323
 20
1.780897037421966
 10
9.264200086249724
 20
1.783606272595567
 10
9.268263939010124
 20
1.786315507769167
 10
9.272327791770524
 20
1.789024742942767
 10
9.277746262117725
 20
1.790379360529567
 10
9.276391644530923
 20
1.787670125355966
 10
9.273682409357324
 20
1.786315507769167
 10
9.273682409357324
 20
1.783606272595567
 10
9.276391644530923
 20
1.782251655008766
 10
9.279100879704524
 20
1.784960890182367
 10
9.283164732464925
 20
1.789024742942767
 10
9.287228585225323
 20
1.793088595703167
 10
9.281810114878123
 20
1.794443213289967
 10
9.276391644530923
 20
1.795797830876767
 10
9.275037026944124
 20
1.799861683637168
 10
9.272327791770524
 20
1.802570918810768
 10
9.273682409357324
 20
1.805280153984368
 10
9.275037026944124
 20
1.807989389157968
 10
9.272327791770524
 20
1.809344006744768
 10
9.269618556596924
 20
1.809344006744768
 10
9.265554703836523
 20
1.806634771571168
 10
9.261490851076124
 20
1.802570918810768
 10
9.258781615902523
 20
1.799861683637168
 10
9.254717763142123
 20
1.797152448463568
 10
9.253363145555323
 20
1.799861683637168
 10
9.257426998315724
 20
1.803925536397568
 10
9.262845468662924
 20
1.809344006744768
 10
9.266909321423324
 20
1.813407859505168
 10
9.270973174183723
 20
1.816117094678769
 10
9.277746262117725
 20
1.816117094678769
 10
9.283164732464925
 20
1.817471712265569
 10
9.287228585225323
 20
1.818826329852369
 10
9.289937820398926
 20
1.822890182612769
 10
9.294001673159325
 20
1.825599417786369
 10
9.298065525919727
 20
1.828308652959969
 10
9.298065525919727
 20
1.832372505720369
 10
9.298065525919727
 20
1.83643635848077
 10
9.291292437985726
 20
1.83914559365437
 10
9.288583202812125
 20
1.84185482882797
 10
9.283164732464925
 20
1.84456406400157
 10
9.279100879704524
 20
1.84591868158837
 10
9.279100879704524
 20
1.85133715193557
 10
9.275037026944124
 20
1.85404638710917
 10
9.272327791770524
 20
1.856755622282771
 10
9.269618556596924
 20
1.85946485745637
 10
9.265554703836523
 20
1.855401004695971
 10
9.262845468662924
 20
1.85404638710917
 10
9.258781615902523
 20
1.85404638710917
 10
9.257426998315724
 20
1.85946485745637
 10
9.256072380728924
 20
1.864883327803571
 10
9.254717763142123
 20
1.867592562977171
 10
9.252008527968522
 20
1.868947180563972
 10
9.249299292794923
 20
1.871656415737572
 10
9.247944675208123
 20
1.871656415737572
 10
9.245235440034522
 20
1.870301798150772
 10
9.239816969687324
 20
1.870301798150772
 10
9.237107734513723
 20
1.870301798150772
 10
9.237107734513723
 20
1.866237945390371
 10
9.235753116926922
 20
1.860819475043171
 10
9.237107734513723
 20
1.85269176952237
 10
9.237107734513723
 20
1.84862791676197
 10
9.237107734513723
 20
1.84320944641477
 10
9.234398499340122
 20
1.83914559365437
 10
9.231689264166523
 20
1.83643635848077
 10
9.230334646579722
 20
1.833727123307169
 10
9.227625411406121
 20
1.832372505720369
 10
9.228980028992922
 20
1.83101788813357
 10
9.230334646579722
 20
1.828308652959969
 10
9.230334646579722
 20
1.822890182612769
 10
9.228980028992922
 20
1.820180947439168
 10
9.224916176232522
 20
1.818826329852369
 10
9.223561558645722
 20
1.820180947439168
 10
9.223561558645722
 20
1.820180947439168
 10
9.222206941058921
 20
1.825599417786369
 10
9.222206941058921
 20
1.825599417786369
 10
9.222206941058921
 20
1.832372505720369
 10
9.22085232347212
 20
1.83643635848077
 10
9.219497705885322
 20
1.83779097606757
 10
9.216788470711721
 20
1.83779097606757
 10
9.212724617951322
 20
1.840500211241169
 10
9.21001538277772
 20
1.84185482882797
 10
9.20730614760412
 20
1.84456406400157
 10
9.20324229484372
 20
1.84591868158837
 10
9.20053305967012
 20
1.84727329917517
 10
9.19782382449652
 20
1.84727329917517
 10
9.19782382449652
 20
1.85269176952237
 10
9.19511458932292
 20
1.858110239869571
 10
9.20053305967012
 20
1.863528710216772
 10
9.20459691243052
 20
1.867592562977171
 10
9.20866076519092
 20
1.871656415737572
 10
9.21543385312492
 20
1.877074886084773
 10
9.216788470711721
 20
1.877074886084773
 10
9.22085232347212
 20
1.879784121258372
 10
9.223561558645722
 20
1.882493356431973
 10
9.223561558645722
 20
1.885202591605573
 10
9.226270793819323
 20
1.889266444365973
 10
9.230334646579722
 20
1.889266444365973
 10
9.233043881753323
 20
1.889266444365973
 10
9.235753116926922
 20
1.891975679539572
 10
9.238462352100521
 20
1.896039532299973
 10
9.235753116926922
 20
1.900103385060373
 10
9.233043881753323
 20
1.898748767473573
 10
9.227625411406121
 20
1.894684914713173
 10
9.224916176232522
 20
1.894684914713173
 10
9.223561558645722
 20
1.900103385060373
 10
9.223561558645722
 20
1.904167237820773
 10
9.223561558645722
 20
1.908231090581174
 10
9.22085232347212
 20
1.908231090581174
 10
9.218143088298522
 20
1.905521855407573
 10
9.218143088298522
 20
1.901458002647173
 10
9.216788470711721
 20
1.897394149886773
 10
9.21407923553812
 20
1.894684914713173
 10
9.21543385312492
 20
1.900103385060373
 10
9.21407923553812
 20
1.901458002647173
 10
9.212724617951322
 20
1.898748767473573
 10
9.21001538277772
 20
1.896039532299973
 10
9.20730614760412
 20
1.896039532299973
 10
9.20459691243052
 20
1.897394149886773
 10
9.20324229484372
 20
1.900103385060373
 10
9.20053305967012
 20
1.900103385060373
 10
9.19917844208332
 20
1.898748767473573
 10
9.19646920690972
 20
1.898748767473573
 10
9.19240535414932
 20
1.900103385060373
 10
9.19240535414932
 20
1.902812620233974
 10
9.19375997173612
 20
1.904167237820773
 10
9.19105073656252
 20
1.906876472994373
 10
9.19240535414932
 20
1.909585708167974
 10
9.19105073656252
 20
1.912294943341573
 10
9.18834150138892
 20
1.913649560928374
 10
9.186986883802119
 20
1.916358796101974
 10
9.18563226621532
 20
1.919068031275574
 10
9.18292303104172
 20
1.919068031275574
 10
9.17885917828132
 20
1.919068031275574
 10
9.180213795868118
 20
1.921777266449175
 10
9.18292303104172
 20
1.923131884035974
 10
9.18292303104172
 20
1.925841119209574
 10
9.18292303104172
 20
1.929904971969975
 10
9.18427764862852
 20
1.932614207143575
 10
9.18563226621532
 20
1.935323442317176
 10
9.18834150138892
 20
1.936678059903975
 10
9.186986883802119
 20
1.939387295077575
 10
9.18427764862852
 20
1.942096530251176
 10
9.181568413454919
 20
1.939387295077575
 10
9.17750456069452
 20
1.938032677490775
 10
9.174795325520918
 20
1.938032677490775
 10
9.17208609034732
 20
1.935323442317176
 10
9.169376855173718
 20
1.935323442317176
 10
9.169376855173718
 20
1.931259589556774
 10
9.166667620000117
 20
1.929904971969975
 10
9.165313002413319
 20
1.928550354383175
 10
9.16124914965292
 20
1.927195736796375
 10
9.159894532066119
 20
1.927195736796375
 10
9.155830679305717
 20
1.923131884035974
 10
9.151766826545318
 20
1.919068031275574
 10
9.149057591371715
 20
1.916358796101974
 10
9.146348356198118
 20
1.913649560928374
 10
9.143639121024515
 20
1.912294943341573
 10
9.142284503437716
 20
1.906876472994373
 10
9.139575268264117
 20
1.908231090581174
 10
9.135511415503716
 20
1.905521855407573
 10
9.140929885850918
 20
1.905521855407573
 10
9.146348356198118
 20
1.904167237820773
 10
9.147702973784918
 20
1.901458002647173
 10
9.146348356198118
 20
1.898748767473573
 10
9.144993738611317
 20
1.893330297126373
 10
9.142284503437716
 20
1.887911826779173
 10
9.144993738611317
 20
1.885202591605573
 10
9.142284503437716
 20
1.878429503671572
 10
9.136866033090516
 20
1.870301798150772
 10
9.134156797916917
 20
1.863528710216772
 10
9.130092945156516
 20
1.858110239869571
 10
9.130092945156516
 20
1.85133715193557
 10
9.127383709982915
 20
1.84727329917517
 10
9.127383709982915
 20
1.840500211241169
 10
9.126029092396116
 20
1.833727123307169
 10
9.126029092396116
 20
1.83101788813357
 10
9.123319857222516
 20
1.829663270546769
 10
9.121965239635715
 20
1.832372505720369
 10
9.120610622048916
 20
1.826954035373169
 10
9.119256004462116
 20
1.824244800199569
 10
9.116546769288515
 20
1.820180947439168
 10
9.112482916528116
 20
1.812053241918368
 10
9.111128298941315
 20
1.809344006744768
 10
9.109773681354515
 20
1.805280153984368
 10
9.109773681354515
 20
1.805280153984368
 10
9.109773681354515
 20
1.805280153984368
  0
LWPOLYLINE
  5
3D5B
330
3D59
100
AcDbEntity
  8
TBTEXT
100
AcDbPolyline
 90
       72
 70
     0
 43
0.0054184703472003
 10
9.074553624097714
 20
1.744322362578365
 10
9.074553624097714
 20
1.744322362578365
 10
9.075908241684514
 20
1.718584628429163
 10
9.079972094444914
 20
1.694201511866761
 10
9.086745182378914
 20
1.66981839530436
 10
9.094872887899713
 20
1.646789896328759
 10
9.105709828594115
 20
1.625116014939957
 10
9.117901386875316
 20
1.604796751137956
 10
9.132802180330115
 20
1.585832104922755
 10
9.147702973784918
 20
1.568222076294355
 10
9.165313002413319
 20
1.551966665252754
 10
9.18563226621532
 20
1.537065871797953
 10
9.205951530017321
 20
1.524874313516752
 10
9.227625411406121
 20
1.514037372822351
 10
9.250653910381724
 20
1.505909667301551
 10
9.273682409357324
 20
1.499136579367551
 10
9.299420143506525
 20
1.496427344193951
 10
9.325157877655727
 20
1.49507272660715
 10
9.325157877655727
 20
1.49507272660715
 10
9.34954099421813
 20
1.496427344193951
 10
9.37527872836733
 20
1.499136579367551
 10
9.398307227342931
 20
1.505909667301551
 10
9.421335726318533
 20
1.514037372822351
 10
9.443009607707333
 20
1.524874313516752
 10
9.464683489096135
 20
1.537065871797953
 10
9.483648135311334
 20
1.551966665252754
 10
9.501258163939736
 20
1.568222076294355
 10
9.517513574981338
 20
1.585832104922755
 10
9.531059750849339
 20
1.604796751137956
 10
9.54325130913054
 20
1.625116014939957
 10
9.55408824982494
 20
1.646789896328759
 10
9.56221595534574
 20
1.66981839530436
 10
9.56898904327974
 20
1.694201511866761
 10
9.57305289604014
 20
1.718584628429163
 10
9.57440751362694
 20
1.744322362578365
 10
9.57440751362694
 20
1.744322362578365
 10
9.57305289604014
 20
1.770060096727566
 10
9.56898904327974
 20
1.794443213289967
 10
9.56221595534574
 20
1.818826329852369
 10
9.55408824982494
 20
1.84185482882797
 10
9.54325130913054
 20
1.863528710216772
 10
9.531059750849339
 20
1.883847974018772
 10
9.517513574981338
 20
1.902812620233974
 10
9.501258163939736
 20
1.920422648862374
 10
9.483648135311334
 20
1.936678059903975
 10
9.464683489096135
 20
1.951578853358776
 10
9.443009607707333
 20
1.963770411639976
 10
9.421335726318533
 20
1.973252734747577
 10
9.398307227342931
 20
1.982735057855178
 10
9.37527872836733
 20
1.988153528202378
 10
9.34954099421813
 20
1.992217380962778
 10
9.325157877655727
 20
1.993571998549578
 10
9.325157877655727
 20
1.993571998549578
 10
9.299420143506525
 20
1.992217380962778
 10
9.273682409357324
 20
1.988153528202378
 10
9.250653910381724
 20
1.982735057855178
 10
9.227625411406121
 20
1.973252734747577
 10
9.205951530017321
 20
1.963770411639976
 10
9.18563226621532
 20
1.951578853358776
 10
9.165313002413319
 20
1.936678059903975
 10
9.147702973784918
 20
1.920422648862374
 10
9.132802180330115
 20
1.902812620233974
 10
9.117901386875316
 20
1.883847974018772
 10
9.105709828594115
 20
1.863528710216772
 10
9.094872887899713
 20
1.84185482882797
 10
9.086745182378914
 20
1.818826329852369
 10
9.079972094444914
 20
1.794443213289967
 10
9.075908241684514
 20
1.770060096727566
 10
9.074553624097714
 20
1.744322362578365
 10
9.074553624097714
 20
1.744322362578365
 10
9.074553624097714
 20
1.744322362578365
 10
9.074553624097714
 20
1.744322362578365
  0
HATCH
  5
3D5C
330
3D59
100
AcDbEntity
  8
TBTEXT
100
AcDbHatch
 10
0.0
 20
0.0
 30
0.0
210
0.0
220
0.0
230
1.0
  2
ANSI31
 70
     0
 71
     0
 91
       10
 92
        7
 72
     0
 73
     1
 93
      452
 10
9.21407923553812
 20
1.623761397353158
 10
9.212724617951322
 20
1.630534485287157
 10
9.212724617951322
 20
1.635952955634359
 10
9.20595153001732
 20
1.638662190807959
 10
9.19646920690972
 20
1.63866219080796
 10
9.19105073656252
 20
1.640016808394758
 10
9.19240535414932
 20
1.646789896328761
 10
9.18969611897572
 20
1.65220836667596
 10
9.18969611897572
 20
1.657626837023159
 10
9.19240535414932
 20
1.65898145460996
 10
9.19240535414932
 20
1.66439992495716
 10
9.19240535414932
 20
1.667109160130761
 10
9.188341501388923
 20
1.66575454254396
 10
9.181568413454915
 20
1.66575454254396
 10
9.17885917828132
 20
1.66169068978356
 10
9.176149943107719
 20
1.657626837023159
 10
9.17344070793412
 20
1.656272219436361
 10
9.165313002413331
 20
1.65898145460996
 10
9.158539914479318
 20
1.661690689783561
 10
9.155830679305717
 20
1.66846377771756
 10
9.153121444132116
 20
1.675236865651561
 10
9.15176682654532
 20
1.680655335998761
 10
9.150412208958517
 20
1.684719188759159
 10
9.151766826545318
 20
1.687428423932762
 10
9.153121444132118
 20
1.691492276693161
 10
9.154476061718919
 20
1.699619982213962
 10
9.157185296892518
 20
1.705038452561163
 10
9.16124914965292
 20
1.709102305321563
 10
9.165313002413315
 20
1.711811540495163
 10
9.17344070793412
 20
1.70910230532156
 10
9.17885917828132
 20
1.706393070147963
 10
9.18292303104172
 20
1.706393070147962
 10
9.181568413454919
 20
1.710456922908362
 10
9.189696118975716
 20
1.710456922908362
 10
9.200533059670121
 20
1.707747687734762
 10
9.20730614760412
 20
1.703683834974358
 10
9.21001538277772
 20
1.699619982213962
 10
9.21001538277772
 20
1.695556129453564
 10
9.211370000364521
 20
1.69013765910636
 10
9.215433853124926
 20
1.68607380634596
 10
9.219497705885322
 20
1.683364571172361
 10
9.222206941058921
 20
1.686073806345961
 10
9.22085232347212
 20
1.692846894279959
 10
9.21814308829852
 20
1.699619982213964
 10
9.21543385312492
 20
1.703683834974362
 10
9.21407923553812
 20
1.709102305321562
 10
9.212724617951322
 20
1.714520775668763
 10
9.219497705885322
 20
1.717230010842364
 10
9.223561558645722
 20
1.724003098776362
 10
9.227625411406121
 20
1.728066951536765
 10
9.231689264166524
 20
1.730776186710365
 10
9.235753116926922
 20
1.732130804297164
 10
9.235753116926922
 20
1.738903892231165
 10
9.235753116926922
 20
1.744322362578364
 10
9.234398499340124
 20
1.747031597751965
 10
9.233043881753323
 20
1.751095450512365
 10
9.237107734513723
 20
1.749740832925565
 10
9.239816969687324
 20
1.752450068099164
 10
9.238462352100521
 20
1.755159303272765
 10
9.242526204860923
 20
1.756513920859564
 10
9.242526204860923
 20
1.760577773619966
 10
9.245235440034522
 20
1.764641626380367
 10
9.249299292794916
 20
1.765996243967165
 10
9.254717763142123
 20
1.768705479140766
 10
9.257426998315724
 20
1.771414714314367
 10
9.260136233489323
 20
1.780897037421967
 10
9.264200086249724
 20
1.783606272595567
 10
9.268263939010124
 20
1.786315507769167
 10
9.27232779177052
 20
1.789024742942764
 10
9.277746262117725
 20
1.790379360529567
 10
9.276391644530923
 20
1.787670125355966
 10
9.273682409357324
 20
1.786315507769166
 10
9.273682409357324
 20
1.783606272595566
 10
9.276391644530923
 20
1.782251655008767
 10
9.279100879704524
 20
1.784960890182367
 10
9.283164732464925
 20
1.789024742942767
 10
9.287228585225323
 20
1.793088595703167
 10
9.281810114878123
 20
1.794443213289967
 10
9.276391644530923
 20
1.795797830876768
 10
9.275037026944124
 20
1.799861683637165
 10
9.272327791770524
 20
1.802570918810768
 10
9.273682409357324
 20
1.805280153984368
 10
9.275037026944124
 20
1.807989389157967
 10
9.272327791770522
 20
1.809344006744768
 10
9.269618556596923
 20
1.809344006744767
 10
9.265554703836527
 20
1.806634771571166
 10
9.261490851076124
 20
1.802570918810768
 10
9.25878161590252
 20
1.799861683637165
 10
9.254717763142123
 20
1.797152448463568
 10
9.253363145555323
 20
1.799861683637167
 10
9.257426998315724
 20
1.803925536397568
 10
9.262845468662924
 20
1.809344006744768
 10
9.26690932142333
 20
1.813407859505175
 10
9.270973174183727
 20
1.816117094678769
 10
9.277746262117727
 20
1.816117094678768
 10
9.283164732464927
 20
1.817471712265571
 10
9.287228585225323
 20
1.818826329852368
 10
9.289937820398926
 20
1.82289018261277
 10
9.294001673159325
 20
1.825599417786369
 10
9.298065525919727
 20
1.828308652959967
 10
9.298065525919727
 20
1.832372505720369
 10
9.298065525919727
 20
1.836436358480769
 10
9.291292437985728
 20
1.839145593654368
 10
9.288583202812127
 20
1.84185482882797
 10
9.283164732464936
 20
1.844564064001563
 10
9.279100879704524
 20
1.845918681588371
 10
9.279100879704524
 20
1.851337151935569
 10
9.27503702694413
 20
1.854046387109167
 10
9.272327791770524
 20
1.856755622282771
 10
9.269618556596924
 20
1.859464857456371
 10
9.265554703836521
 20
1.855401004695971
 10
9.262845468662926
 20
1.854046387109172
 10
9.258781615902523
 20
1.854046387109169
 10
9.257426998315724
 20
1.85946485745637
 10
9.256072380728924
 20
1.864883327803569
 10
9.254717763142123
 20
1.86759256297717
 10
9.252008527968528
 20
1.868947180563969
 10
9.249299292794923
 20
1.871656415737572
 10
9.247944675208124
 20
1.871656415737572
 10
9.245235440034522
 20
1.870301798150773
 10
9.239816969687324
 20
1.870301798150772
 10
9.237107734513723
 20
1.870301798150772
 10
9.237107734513723
 20
1.866237945390372
 10
9.235753116926922
 20
1.860819475043172
 10
9.237107734513723
 20
1.852691769522374
 10
9.237107734513723
 20
1.84862791676197
 10
9.237107734513723
 20
1.843209446414771
 10
9.234398499340122
 20
1.83914559365437
 10
9.231689264166523
 20
1.83643635848077
 10
9.230334646579722
 20
1.833727123307169
 10
9.227625411406123
 20
1.832372505720369
 10
9.228980028992922
 20
1.83101788813357
 10
9.230334646579722
 20
1.82830865295997
 10
9.230334646579722
 20
1.822890182612768
 10
9.228980028992922
 20
1.82018094743917
 10
9.224916176232522
 20
1.818826329852368
 10
9.223561558645722
 20
1.820180947439169
 10
9.222206941058921
 20
1.825599417786367
 10
9.222206941058921
 20
1.83237250572037
 10
9.220852323472123
 20
1.836436358480769
 10
9.219497705885324
 20
1.83779097606757
 10
9.216788470711723
 20
1.837790976067569
 10
9.21272461795132
 20
1.84050021124117
 10
9.21001538277772
 20
1.841854828827968
 10
9.20730614760412
 20
1.84456406400157
 10
9.20324229484372
 20
1.84591868158837
 10
9.20053305967012
 20
1.84727329917517
 10
9.19782382449652
 20
1.84727329917517
 10
9.19782382449652
 20
1.85269176952237
 10
9.19511458932292
 20
1.858110239869572
 10
9.20053305967012
 20
1.863528710216772
 10
9.20459691243052
 20
1.867592562977171
 10
9.20866076519092
 20
1.871656415737565
 10
9.215433853124923
 20
1.877074886084773
 10
9.216788470711721
 20
1.877074886084773
 10
9.22085232347212
 20
1.879784121258373
 10
9.223561558645722
 20
1.882493356431973
 10
9.223561558645722
 20
1.885202591605574
 10
9.226270793819323
 20
1.889266444365975
 10
9.230334646579722
 20
1.889266444365973
 10
9.233043881753321
 20
1.889266444365972
 10
9.235753116926922
 20
1.891975679539571
 10
9.238462352100521
 20
1.896039532299973
 10
9.235753116926922
 20
1.900103385060374
 10
9.233043881753323
 20
1.898748767473575
 10
9.227625411406121
 20
1.894684914713173
 10
9.224916176232522
 20
1.894684914713172
 10
9.223561558645722
 20
1.90010338506037
 10
9.223561558645722
 20
1.904167237820773
 10
9.223561558645722
 20
1.908231090581174
 10
9.220852323472123
 20
1.908231090581174
 10
9.218143088298522
 20
1.905521855407574
 10
9.218143088298522
 20
1.901458002647174
 10
9.216788470711721
 20
1.897394149886772
 10
9.21407923553812
 20
1.894684914713175
 10
9.21543385312492
 20
1.900103385060372
 10
9.21407923553812
 20
1.901458002647173
 10
9.212724617951322
 20
1.898748767473573
 10
9.21001538277772
 20
1.896039532299974
 10
9.20730614760412
 20
1.896039532299973
 10
9.20459691243052
 20
1.897394149886774
 10
9.20324229484372
 20
1.900103385060373
 10
9.200533059670121
 20
1.900103385060373
 10
9.19917844208332
 20
1.898748767473573
 10
9.196469206909722
 20
1.898748767473572
 10
9.19240535414932
 20
1.900103385060373
 10
9.19240535414932
 20
1.902812620233974
 10
9.19375997173612
 20
1.904167237820773
 10
9.19105073656252
 20
1.906876472994373
 10
9.19240535414932
 20
1.909585708167976
 10
9.19105073656252
 20
1.912294943341573
 10
9.188341501388917
 20
1.913649560928375
 10
9.186986883802119
 20
1.916358796101974
 10
9.18563226621532
 20
1.919068031275575
 10
9.18292303104172
 20
1.919068031275574
 10
9.17885917828132
 20
1.919068031275574
 10
9.18021379586812
 20
1.921777266449177
 10
9.18292303104172
 20
1.923131884035974
 10
9.18292303104172
 20
1.925841119209574
 10
9.18292303104172
 20
1.929904971969975
 10
9.18427764862852
 20
1.932614207143575
 10
9.18563226621532
 20
1.935323442317176
 10
9.18834150138892
 20
1.936678059903974
 10
9.186986883802119
 20
1.939387295077574
 10
9.18427764862852
 20
1.942096530251176
 10
9.181568413454919
 20
1.939387295077575
 10
9.177504560694523
 20
1.938032677490775
 10
9.174795325520918
 20
1.938032677490775
 10
9.17208609034732
 20
1.935323442317175
 10
9.169376855173718
 20
1.935323442317177
 10
9.169376855173718
 20
1.931259589556775
 10
9.166667620000117
 20
1.929904971969974
 10
9.165313002413315
 20
1.928550354383173
 10
9.161249149652923
 20
1.927195736796376
 10
9.159894532066119
 20
1.927195736796375
 10
9.155830679305717
 20
1.923131884035974
 10
9.151766826545318
 20
1.919068031275574
 10
9.149057591371715
 20
1.916358796101974
 10
9.146348356198118
 20
1.913649560928375
 10
9.143639121024515
 20
1.912294943341573
 10
9.142284503437716
 20
1.906876472994373
 10
9.139575268264117
 20
1.908231090581173
 10
9.135511415503714
 20
1.905521855407573
 10
9.140929885850921
 20
1.905521855407573
 10
9.146348356198118
 20
1.904167237820774
 10
9.147702973784918
 20
1.901458002647174
 10
9.146348356198118
 20
1.898748767473574
 10
9.144993738611317
 20
1.893330297126374
 10
9.142284503437716
 20
1.887911826779173
 10
9.144993738611317
 20
1.885202591605573
 10
9.142284503437716
 20
1.878429503671569
 10
9.136866033090516
 20
1.870301798150771
 10
9.134156797916916
 20
1.863528710216767
 10
9.130092945156516
 20
1.858110239869572
 10
9.130092945156516
 20
1.85133715193557
 10
9.127383709982915
 20
1.847273299175169
 10
9.127383709982915
 20
1.840500211241169
 10
9.126029092396116
 20
1.833727123307169
 10
9.126029092396116
 20
1.831017888133569
 10
9.123319857222516
 20
1.829663270546769
 10
9.121965239635715
 20
1.832372505720369
 10
9.120610622048916
 20
1.826954035373169
 10
9.119256004462114
 20
1.824244800199566
 10
9.116546769288515
 20
1.820180947439169
 10
9.112482916528116
 20
1.812053241918368
 10
9.111128298941315
 20
1.809344006744767
 10
9.109773681354515
 20
1.805280153984368
 10
9.109773681354515
 20
1.801216301223969
 10
9.107064446180916
 20
1.799861683637167
 10
9.107064446180916
 20
1.797152448463567
 10
9.105709828594115
 20
1.794443213289968
 10
9.104355211007315
 20
1.793088595703168
 10
9.104355211007315
 20
1.786315507769167
 10
9.104355211007315
 20
1.779542419835168
 10
9.103000593420514
 20
1.771414714314366
 10
9.104355211007315
 20
1.763287008793566
 10
9.105709828594115
 20
1.760577773619968
 10
9.107064446180916
 20
1.759223156033165
 10
9.107064446180916
 20
1.752450068099165
 10
9.107064446180916
 20
1.745676980165165
 10
9.107064446180916
 20
1.738903892231165
 10
9.107064446180916
 20
1.734840039470766
 10
9.108419063767714
 20
1.732130804297166
 10
9.108419063767714
 20
1.725357716363163
 10
9.107064446180916
 20
1.724003098776362
 10
9.108419063767716
 20
1.72129386360276
 10
9.109773681354511
 20
1.719939246015966
 10
9.111128298941315
 20
1.717230010842362
 10
9.111128298941315
 20
1.714520775668763
 10
9.111128298941315
 20
1.709102305321562
 10
9.112482916528116
 20
1.706393070147961
 10
9.113837534114916
 20
1.700974599800763
 10
9.116546769288513
 20
1.699619982213962
 10
9.117901386875314
 20
1.700974599800761
 10
9.116546769288513
 20
1.703683834974368
 10
9.115192151701715
 20
1.707747687734765
 10
9.113837534114918
 20
1.714520775668762
 10
9.112482916528116
 20
1.717230010842361
 10
9.112482916528116
 20
1.719939246015964
 10
9.111128298941315
 20
1.725357716363162
 10
9.111128298941315
 20
1.729421569123563
 10
9.111128298941315
 20
1.732130804297162
 10
9.109773681354515
 20
1.734840039470765
 10
9.109773681354515
 20
1.738903892231164
 10
9.111128298941315
 20
1.742967744991564
 10
9.113837534114916
 20
1.741613127404764
 10
9.113837534114916
 20
1.736194657057564
 10
9.113837534114916
 20
1.730776186710365
 10
9.115192151701716
 20
1.726712333949961
 10
9.116546769288515
 20
1.724003098776362
 10
9.116546769288515
 20
1.717230010842363
 10
9.119256004462116
 20
1.710456922908366
 10
9.120610622048915
 20
1.705038452561164
 10
9.123319857222516
 20
1.69826536462716
 10
9.126029092396116
 20
1.694201511866761
 10
9.128738327569716
 20
1.688783041519561
 10
9.128738327569716
 20
1.680655335998761
 10
9.130092945156516
 20
1.676591483238361
 10
9.134156797916917
 20
1.672527630477961
 10
9.139575268264117
 20
1.667109160130762
 10
9.14499373861132
 20
1.658981454609958
 10
9.150412208958524
 20
1.654917601849564
 10
9.158539914479316
 20
1.648144513915561
 10
9.162603767239716
 20
1.646789896328757
 10
9.165313002413319
 20
1.648144513915559
 10
9.169376855173718
 20
1.646789896328761
 10
9.17208609034732
 20
1.642726043568359
 10
9.17479532552092
 20
1.638662190807954
 10
9.17750456069452
 20
1.635952955634358
 10
9.18563226621532
 20
1.633243720460759
 10
9.19105073656252
 20
1.629179867700358
 10
9.196469206909722
 20
1.625116014939957
 10
9.19917844208332
 20
1.622406779766357
 10
9.203242294843719
 20
1.618342927005958
 10
9.20459691243052
 20
1.614279074245557
 10
9.205951530017321
 20
1.61021522148516
 10
9.211370000364521
 20
1.607505986311558
 10
9.212724617951322
 20
1.608860603898359
 10
9.214079235538119
 20
1.60615136872476
 10
9.219497705885322
 20
1.603442133551157
 10
9.224916176232522
 20
1.600732898377557
 10
9.230334646579722
 20
1.598023663203956
 10
9.234398499340122
 20
1.599378280790756
 10
9.234398499340122
 20
1.602087515964357
 10
9.239816969687322
 20
1.602087515964357
 10
9.242526204860923
 20
1.599378280790756
 10
9.245235440034524
 20
1.596669045617154
 10
9.247944675208123
 20
1.591250575269956
 10
9.249299292794921
 20
1.588541340096361
 10
9.250653910381724
 20
1.583122869749155
 10
9.250653910381724
 20
1.579059016988754
 10
9.246590057621326
 20
1.576349781815157
 10
9.245235440034522
 20
1.574995164228355
 10
9.242526204860923
 20
1.572285929054755
 10
9.242526204860923
 20
1.568222076294355
 10
9.242526204860923
 20
1.562803605947154
 10
9.245235440034522
 20
1.558739753186755
 10
9.242526204860923
 20
1.557385135599955
 10
9.245235440034522
 20
1.554675900426353
 10
9.246590057621324
 20
1.549257430079156
 10
9.253363145555324
 20
1.546548194905553
 10
9.257426998315724
 20
1.541129724558353
 10
9.265554703836528
 20
1.537065871797947
 10
9.270973174183714
 20
1.533002019037545
 10
9.277746262117722
 20
1.527583548690356
 10
9.280455497291326
 20
1.524874313516752
 10
9.28993782039892
 20
1.523519695929951
 10
9.29942014350655
 20
1.520810460756338
 10
9.304838613853727
 20
1.51945584316955
 10
9.30890246661413
 20
1.516746607995957
 10
9.312966319374533
 20
1.512682755235543
 10
9.317030172134926
 20
1.507264284888351
 10
9.318384789721728
 20
1.500491196954351
 10
9.322448642482128
 20
1.499136579367552
 10
9.319739407308528
 20
1.49642734419395
 10
9.323549269271401
 20
1.495157390206323
 10
9.32515787765572
 20
1.495072726607149
 10
9.349540994218131
 20
1.496427344193951
 10
9.363579758299515
 20
1.497905108834099
 10
9.368505640433327
 20
1.499136579367551
 10
9.375278728367332
 20
1.499136579367551
 10
9.37798796354093
 20
1.499933413242137
 10
9.37798796354093
 20
1.503200432127951
 10
9.383406433888132
 20
1.505909667301551
 10
9.388824904235328
 20
1.507264284888351
 10
9.394243374582533
 20
1.509973520061954
 10
9.401016462516534
 20
1.512682755235553
 10
9.405080315276928
 20
1.518101225582748
 10
9.40914416803733
 20
1.522165078343151
 10
9.413208020797732
 20
1.527583548690353
 10
9.417271873558134
 20
1.528938166277153
 10
9.424044961492132
 20
1.533002019037551
 10
9.426754196665733
 20
1.535711254211153
 10
9.425399579078933
 20
1.538420489384754
 10
9.429463431839334
 20
1.537065871797952
 10
9.436236519773335
 20
1.539775106971553
 10
9.441654990120535
 20
1.545193577318753
 10
9.444364225294134
 20
1.553321282839553
 10
9.444364225294134
 20
1.558739753186755
 10
9.445718842880932
 20
1.561448988360354
 10
9.448428078054535
 20
1.564158223533956
 10
9.448428078054535
 20
1.566867458707554
 10
9.451137313228134
 20
1.570931311467954
 10
9.455201165988534
 20
1.577704399401956
 10
9.459265018748933
 20
1.583122869749153
 10
9.460619636335736
 20
1.588541340096356
 10
9.461974253922534
 20
1.593959810443556
 10
9.459265018748937
 20
1.596669045617156
 10
9.456555783575334
 20
1.595314428030357
 10
9.447073460467733
 20
1.596669045617156
 10
9.44030037253373
 20
1.595314428030354
 10
9.436236519773331
 20
1.593959810443551
 10
9.42946343183933
 20
1.591250575269953
 10
9.418626491144932
 20
1.589895957683156
 10
9.407789550450532
 20
1.589895957683156
 10
9.40372569769013
 20
1.589895957683156
 10
9.396952609756132
 20
1.584477487335956
 10
9.39559799216933
 20
1.587186722509557
 10
9.39559799216933
 20
1.589895957683157
 10
9.390179521822132
 20
1.588541340096356
 10
9.387470286648531
 20
1.589895957683157
 10
9.387470286648531
 20
1.595314428030356
 10
9.383406433888132
 20
1.598023663203956
 10
9.379342581127732
 20
1.600732898377556
 10
9.37663334595413
 20
1.603442133551157
 10
9.367151022846528
 20
1.603442133551157
 10
9.361732552499326
 20
1.604796751137955
 10
9.357668699738934
 20
1.603442133551159
 10
9.352250229391728
 20
1.602087515964358
 10
9.349540994218131
 20
1.602087515964358
 10
9.342767906284127
 20
1.603442133551156
 10
9.340058671110528
 20
1.607505986311559
 10
9.337349435936927
 20
1.608860603898357
 10
9.330576348002928
 20
1.608860603898357
 10
9.322448642482128
 20
1.612924456658757
 10
9.319739407308534
 20
1.614279074245557
 10
9.314320936961327
 20
1.615633691832358
 10
9.308902466614116
 20
1.614279074245556
 10
9.30483861385373
 20
1.612924456658758
 10
9.302129378680126
 20
1.612924456658757
 10
9.299420143506527
 20
1.612924456658757
 10
9.296710908332926
 20
1.615633691832357
 10
9.295356290746126
 20
1.611569839071957
 10
9.289937820398926
 20
1.612924456658756
 10
9.287228585225323
 20
1.615633691832358
 10
9.285873967638524
 20
1.615633691832357
 10
9.283164732464925
 20
1.614279074245557
 10
9.281810114878123
 20
1.61698830941916
 10
9.279100879704524
 20
1.618342927005956
 10
9.276391644530923
 20
1.616988309419157
 10
9.275037026944123
 20
1.612924456658756
 10
9.276391644530923
 20
1.607505986311555
 10
9.275037026944126
 20
1.606151368724757
 10
9.272327791770524
 20
1.607505986311556
 10
9.272327791770524
 20
1.611569839071955
 10
9.270973174183723
 20
1.615633691832359
 10
9.272327791770524
 20
1.619697544592757
 10
9.266909321423324
 20
1.619697544592757
 10
9.262845468662924
 20
1.615633691832358
 10
9.257426998315722
 20
1.614279074245557
 10
9.254717763142123
 20
1.612924456658757
 10
9.252008527968522
 20
1.611569839071957
 10
9.252008527968522
 20
1.604796751137956
 10
9.247944675208123
 20
1.600732898377557
 10
9.243880822447714
 20
1.603442133551154
 10
9.23846235210052
 20
1.607505986311558
 10
9.233043881753323
 20
1.607505986311556
 10
9.23033464657972
 20
1.606151368724757
 10
9.224916176232544
 20
1.607505986311552
 10
9.22085232347212
 20
1.608860603898357
 10
9.216788470711721
 20
1.611569839071957
 10
9.215433853124923
 20
1.616988309419136
 97
        0
 92
       22
 72
     0
 73
     1
 93
       11
 10
9.223561558645722
 20
1.775478567074766
 10
9.224916176232522
 20
1.778187802248366
 10
9.224916176232522
 20
1.779542419835165
 10
9.226270793819323
 20
1.780897037421966
 10
9.230334646579715
 20
1.780897037421966
 10
9.234398499340122
 20
1.782251655008767
 10
9.234398499340122
 20
1.780897037421966
 10
9.234398499340122
 20
1.778187802248367
 10
9.233043881753321
 20
1.776833184661567
 10
9.23033464657972
 20
1.775478567074766
 10
9.226270793819323
 20
1.775478567074766
 97
        0
 92
       23
 72
     0
 73
     1
 93
       18
 10
9.276391644530923
 20
1.65356298426276
 10
9.275037026944124
 20
1.65356298426276
 10
9.269618556596923
 20
1.65356298426276
 10
9.265554703836523
 20
1.65491760184956
 10
9.25878161590252
 20
1.656272219436359
 10
9.254717763142123
 20
1.654917601849559
 10
9.256072380728924
 20
1.653562984262758
 10
9.258781615902523
 20
1.652208366675958
 10
9.260136233489323
 20
1.649499131502359
 10
9.258781615902523
 20
1.649499131502359
 10
9.256072380728924
 20
1.649499131502359
 10
9.253363145555324
 20
1.649499131502359
 10
9.250653910381724
 20
1.646789896328757
 10
9.253363145555323
 20
1.645435278741961
 10
9.258781615902524
 20
1.644080661155157
 10
9.266909321423334
 20
1.645435278741959
 10
9.272327791770518
 20
1.646789896328757
 10
9.279100879704524
 20
1.64949913150236
 97
        0
 92
       23
 72
     0
 73
     1
 93
       24
 10
9.250653910381724
 20
1.657626837023158
 10
9.245235440034493
 20
1.658981454609967
 10
9.238462352100521
 20
1.660336072196761
 10
9.233043881753323
 20
1.664399924957159
 10
9.226270793819323
 20
1.667109160130761
 10
9.219497705885322
 20
1.667109160130761
 10
9.218143088298522
 20
1.669818395304359
 10
9.214079235538122
 20
1.669818395304359
 10
9.21001538277772
 20
1.67117301289116
 10
9.20730614760412
 20
1.66846377771756
 10
9.204596912430523
 20
1.665754542543961
 10
9.203242294843719
 20
1.665754542543959
 10
9.20459691243052
 20
1.66304530737036
 10
9.21001538277772
 20
1.66575454254396
 10
9.211370000364521
 20
1.667109160130761
 10
9.21543385312492
 20
1.66575454254396
 10
9.223561558645722
 20
1.66304530737036
 10
9.227625411406123
 20
1.66169068978356
 10
9.230334646579724
 20
1.658981454609962
 10
9.233043881753323
 20
1.657626837023159
 10
9.235753116926922
 20
1.656272219436358
 10
9.238462352100523
 20
1.652208366675959
 10
9.243880822447707
 20
1.653562984262757
 10
9.250653910381724
 20
1.65491760184956
 97
        0
 92
        7
 72
     0
 73
     1
 93
       86
 10
9.570343660866543
 20
1.782251655008762
 10
9.56898904327974
 20
1.791733978116366
 10
9.566279808106138
 20
1.799861683637173
 10
9.56357057293254
 20
1.813407859505161
 10
9.55950672017214
 20
1.825599417786369
 10
9.55679748499854
 20
1.833727123307172
 10
9.552733632238137
 20
1.843209446414769
 10
9.547315161890939
 20
1.854046387109169
 10
9.545283235510732
 20
1.859464857456381
 10
9.54325130913054
 20
1.863528710216777
 10
9.531059750849339
 20
1.883847974018783
 10
9.524286662915351
 20
1.89333029712636
 10
9.522932045328533
 20
1.894684914713182
 10
9.520222810154939
 20
1.898748767473575
 10
9.516158957394538
 20
1.902812620233973
 10
9.517513574981338
 20
1.896039532299974
 10
9.517513574981338
 20
1.893330297126373
 10
9.517513574981338
 20
1.886557209192369
 10
9.518868192568139
 20
1.882493356431973
 10
9.521577427741732
 20
1.879784121258378
 10
9.525641280502139
 20
1.877074886084773
 10
9.525641280502139
 20
1.873011033324371
 10
9.522932045328538
 20
1.870301798150773
 10
9.520222810154939
 20
1.868947180563971
 10
9.516158957394538
 20
1.873011033324371
 10
9.514804339807737
 20
1.86759256297717
 10
9.512095104634138
 20
1.86759256297717
 10
9.508031251873758
 20
1.870301798150751
 10
9.502612781526535
 20
1.874365650911173
 10
9.499903546352938
 20
1.875720268497972
 10
9.498548928766137
 20
1.868947180563971
 10
9.495839693592536
 20
1.862174092629971
 10
9.497194311179337
 20
1.856755622282771
 10
9.494485076005734
 20
1.855401004695971
 10
9.491775840832137
 20
1.85404638710917
 10
9.494485076005734
 20
1.84862791676197
 10
9.493130458418937
 20
1.84185482882797
 10
9.490421223245336
 20
1.839145593654371
 10
9.487711988071737
 20
1.83779097606757
 10
9.485002752898136
 20
1.837790976067571
 10
9.487711988071737
 20
1.831017888133564
 10
9.489066605658534
 20
1.824244800199568
 10
9.489066605658534
 20
1.818826329852369
 10
9.489066605658534
 20
1.813407859505167
 10
9.491775840832137
 20
1.810698624331569
 10
9.493130458418937
 20
1.806634771571167
 10
9.494485076005734
 20
1.801216301223966
 10
9.493130458418937
 20
1.789024742942768
 10
9.493130458418937
 20
1.776833184661568
 10
9.494485076005738
 20
1.763287008793541
 10
9.495839693592536
 20
1.752450068099166
 10
9.498548928766137
 20
1.749740832925565
 10
9.502612781526537
 20
1.745676980165162
 10
9.506676634286938
 20
1.734840039470762
 10
9.506676634286938
 20
1.722648481189562
 10
9.509385869460537
 20
1.719939246015964
 10
9.51074048704734
 20
1.718584628429161
 10
9.513449722220939
 20
1.714520775668761
 10
9.518868192568139
 20
1.711811540495164
 10
9.52022281015494
 20
1.713166158081964
 10
9.522932045328538
 20
1.710456922908361
 10
9.528350515675744
 20
1.707747687734759
 10
9.532414368436141
 20
1.705038452561163
 10
9.536478221196539
 20
1.705038452561162
 10
9.541896691543739
 20
1.705038452561162
 10
9.54596054430414
 20
1.709102305321564
 10
9.55137901465134
 20
1.721293863602763
 10
9.55679748499854
 20
1.733485421883965
 10
9.55950672017214
 20
1.740258509817962
 10
9.558152102585339
 20
1.742967744991563
 10
9.55950672017214
 20
1.745676980165165
 10
9.560861337758938
 20
1.748386215338765
 10
9.564925190519341
 20
1.748386215338764
 10
9.566279808106138
 20
1.748386215338764
 10
9.56763442569294
 20
1.751095450512364
 10
9.56763442569294
 20
1.755159303272764
 10
9.570343660866541
 20
1.755159303272765
 10
9.56898904327974
 20
1.749740832925566
 10
9.56898904327974
 20
1.747031597751965
 10
9.56898904327974
 20
1.742967744991566
 10
9.570343660866541
 20
1.737549274644366
 10
9.571698278453342
 20
1.734840039470764
 10
9.57305289604014
 20
1.733485421883965
 10
9.57305289604014
 20
1.738903892231165
 10
9.57305289604014
 20
1.755159303272765
 10
9.57305289604014
 20
1.767350861553966
 97
        0
 92
        7
 72
     0
 73
     1
 93
      204
 10
9.486357370484937
 20
1.85675562228277
 10
9.487711988071736
 20
1.85811023986957
 10
9.483648135311334
 20
1.862174092629971
 10
9.479584282550936
 20
1.86623794539037
 10
9.47822966496414
 20
1.87436565091118
 10
9.476875047377336
 20
1.881138738845171
 10
9.474165812203735
 20
1.882493356431973
 10
9.475520429790533
 20
1.886557209192368
 10
9.476875047377336
 20
1.889266444365972
 10
9.475520429790535
 20
1.894684914713174
 10
9.476875047377337
 20
1.896039532299973
 10
9.479584282550936
 20
1.893330297126373
 10
9.482293517724536
 20
1.890621061952773
 10
9.487711988071737
 20
1.885202591605573
 10
9.490421223245336
 20
1.883847974018771
 10
9.489066605658534
 20
1.886557209192375
 10
9.483648135311334
 20
1.891975679539571
 10
9.483648135311334
 20
1.894684914713172
 10
9.491775840832137
 20
1.894684914713173
 10
9.494485076005734
 20
1.894684914713173
 10
9.495839693592536
 20
1.893330297126373
 10
9.498548928766137
 20
1.890621061952773
 10
9.499903546352938
 20
1.889266444365973
 10
9.501258163939736
 20
1.885202591605573
 10
9.502612781526537
 20
1.886557209192372
 10
9.49990354635294
 20
1.891975679539575
 10
9.497194311179337
 20
1.896039532299973
 10
9.494485076005734
 20
1.898748767473573
 10
9.493130458418939
 20
1.901458002647173
 10
9.489066605658534
 20
1.901458002647173
 10
9.480938900137733
 20
1.901458002647174
 10
9.475520429790535
 20
1.904167237820777
 10
9.474165812203735
 20
1.908231090581173
 10
9.480938900137737
 20
1.908231090581175
 10
9.483648135311334
 20
1.906876472994373
 10
9.487711988071737
 20
1.908231090581176
 10
9.491775840832137
 20
1.906876472994374
 10
9.495839693592538
 20
1.904167237820773
 10
9.498548928766137
 20
1.901458002647172
 10
9.503967399113337
 20
1.900103385060372
 10
9.503967399113337
 20
1.901458002647173
 10
9.497194311179335
 20
1.906876472994376
 10
9.494485076005734
 20
1.910940325754774
 10
9.491775840832133
 20
1.915004178515175
 10
9.490421223245335
 20
1.917713413688773
 10
9.486357370484937
 20
1.921777266449174
 10
9.482293517724536
 20
1.927195736796377
 10
9.475520429790539
 20
1.931259589556776
 10
9.471456577030136
 20
1.935323442317174
 10
9.472811194616934
 20
1.938032677490773
 10
9.468747341856536
 20
1.942096530251176
 10
9.464683489096133
 20
1.946160383011576
 10
9.472811194616934
 20
1.943451147837973
 10
9.474165812203733
 20
1.940741912664377
 10
9.476875047377334
 20
1.938032677490779
 10
9.479584282550935
 20
1.933968824730389
 10
9.483648135311338
 20
1.92855035438317
 10
9.487711988071736
 20
1.925841119209573
 10
9.490421223245333
 20
1.920422648862378
 10
9.493130458418937
 20
1.916358796101978
 10
9.497194311179335
 20
1.912294943341575
 10
9.501258163939735
 20
1.910940325754773
 10
9.505322016700138
 20
1.910940325754774
 10
9.505322016700138
 20
1.913649560928374
 10
9.495839693592536
 20
1.920422648862377
 10
9.494485076005734
 20
1.924486501622774
 10
9.494485076005734
 20
1.926674730032222
 10
9.483648135311341
 20
1.936678059903969
 10
9.464683489096139
 20
1.951578853358776
 10
9.45384654840175
 20
1.957674632499374
 10
9.44707346046772
 20
1.961061176466384
 10
9.440119756855484
 20
1.965034721387662
 10
9.421335726318539
 20
1.973252734747592
 10
9.402723651804022
 20
1.980916530135905
 10
9.372569493193735
 20
1.988153528202376
 10
9.37013118153749
 20
1.988966298754458
 10
9.349540994218128
 20
1.992217380962777
 10
9.325157877655728
 20
1.993571998549578
 10
9.305359620617882
 20
1.99252998502127
 10
9.30348399626693
 20
1.992217380962778
 10
9.299420143506525
 20
1.992217380962778
 10
9.27735922852149
 20
1.988734078596719
 10
9.275037026944126
 20
1.988153528202378
 10
9.277746262117727
 20
1.986798910615577
 10
9.281810114878127
 20
1.986798910615577
 10
9.284519350051726
 20
1.984089675441977
 10
9.289937820398926
 20
1.981380440268377
 10
9.291292437985726
 20
1.984089675441977
 10
9.287228585225323
 20
1.985444293028779
 10
9.291292437985726
 20
1.988153528202378
 10
9.302129378680128
 20
1.988153528202379
 10
9.306193231440526
 20
1.986798910615577
 10
9.310257084200927
 20
1.989508145789178
 10
9.318384789721728
 20
1.989508145789178
 10
9.330576348002927
 20
1.989508145789178
 10
9.334640200763328
 20
1.989508145789179
 10
9.33599481835013
 20
1.988153528202378
 10
9.340058671110528
 20
1.988153528202378
 10
9.342767906284127
 20
1.988153528202378
 10
9.348186376631327
 20
1.988153528202379
 10
9.348186376631327
 20
1.986798910615577
 10
9.346831759044527
 20
1.985444293028777
 10
9.341413288697321
 20
1.984089675441972
 10
9.333285583176515
 20
1.982735057855177
 10
9.341413288697328
 20
1.982735057855178
 10
9.346831759044528
 20
1.982735057855178
 10
9.350895611804928
 20
1.982735057855177
 10
9.350895611804928
 20
1.985444293028778
 10
9.353604846978527
 20
1.985444293028777
 10
9.359023317325727
 20
1.984089675441977
 10
9.36037793491253
 20
1.981380440268377
 10
9.36579640525976
 20
1.98002582268157
 10
9.372569493193756
 20
1.978671205094762
 10
9.37798796354093
 20
1.977316587507978
 10
9.380697198714525
 20
1.975961969921178
 10
9.386115669061734
 20
1.974607352334376
 10
9.387470286648531
 20
1.973252734747579
 10
9.387470286648531
 20
1.970543499573977
 10
9.383406433888132
 20
1.969188881987177
 10
9.383406433888132
 20
1.973252734747577
 10
9.37934258112772
 20
1.974607352334379
 10
9.37392411078053
 20
1.975961969921177
 10
9.36850564043333
 20
1.974607352334378
 10
9.365796405259728
 20
1.971898117160775
 10
9.36444178767293
 20
1.969188881987179
 10
9.36173255249933
 20
1.967834264400377
 10
9.36173255249933
 20
1.966479646813577
 10
9.364441787672927
 20
1.962415794053172
 10
9.36850564043333
 20
1.959706558879578
 10
9.373924110780528
 20
1.958351941292776
 10
9.37663334595413
 20
1.955642706119175
 10
9.382051816301331
 20
1.952933470945576
 10
9.387470286648531
 20
1.950224235771976
 10
9.39153413940893
 20
1.944805765424775
 10
9.395597992169336
 20
1.939387295077574
 10
9.40101646251653
 20
1.935323442317173
 10
9.406434932863732
 20
1.932614207143575
 10
9.411853403210932
 20
1.931259589556775
 10
9.414562638384531
 20
1.931259589556773
 10
9.413208020797732
 20
1.936678059903974
 10
9.417271873558132
 20
1.936678059903974
 10
9.418626491144934
 20
1.933968824730375
 10
9.421335726318535
 20
1.929904971969973
 10
9.426754196665728
 20
1.927195736796381
 10
9.430818049426133
 20
1.924486501622775
 10
9.433527284599734
 20
1.925841119209573
 10
9.425399579078933
 20
1.931259589556774
 10
9.421335726318532
 20
1.933968824730376
 10
9.428108814252536
 20
1.932614207143574
 10
9.430818049426133
 20
1.933968824730376
 10
9.426754196665737
 20
1.938032677490776
 10
9.41727187355811
 20
1.944805765424789
 10
9.410498785624133
 20
1.948869618185182
 10
9.391534139408927
 20
1.956997323705976
 10
9.387470286648531
 20
1.958351941292776
 10
9.38882490423533
 20
1.961061176466377
 10
9.391534139408927
 20
1.961061176466377
 10
9.394243374582532
 20
1.958351941292776
 10
9.396952609756132
 20
1.955642706119175
 10
9.403725697690131
 20
1.954288088532373
 10
9.410498785624132
 20
1.951578853358775
 10
9.413208020797732
 20
1.951578853358775
 10
9.413208020797732
 20
1.955642706119178
 10
9.411853403210934
 20
1.958351941292775
 10
9.41727187355813
 20
1.952933470945581
 10
9.421335726318533
 20
1.950224235771977
 10
9.424044961492132
 20
1.951578853358776
 10
9.425399579078933
 20
1.947515000598374
 10
9.426754196665732
 20
1.944805765424776
 10
9.432172667012933
 20
1.943451147837976
 10
9.436236519773333
 20
1.939387295077577
 10
9.438945754946934
 20
1.933968824730375
 10
9.437591137360133
 20
1.928550354383173
 10
9.434881902186534
 20
1.927195736796375
 10
9.433527284599734
 20
1.919068031275573
 10
9.434881902186534
 20
1.915004178515175
 10
9.437591137360132
 20
1.912294943341574
 10
9.440300372533734
 20
1.910940325754778
 10
9.444364225294134
 20
1.908231090581173
 10
9.444364225294134
 20
1.901458002647173
 10
9.444364225294134
 20
1.897394149886774
 10
9.445718842880934
 20
1.893330297126374
 10
9.444364225294134
 20
1.890621061952773
 10
9.441654990120535
 20
1.887911826779173
 10
9.443009607707333
 20
1.886557209192372
 10
9.452491930814936
 20
1.885202591605574
 10
9.456555783575334
 20
1.885202591605573
 10
9.459265018748933
 20
1.882493356431972
 10
9.460619636335736
 20
1.87978412125837
 10
9.463328871509333
 20
1.877074886084773
 10
9.464683489096135
 20
1.874365650911172
 10
9.461974253922534
 20
1.868947180563972
 10
9.460619636335736
 20
1.866237945390372
 10
9.456555783575334
 20
1.866237945390371
 10
9.456555783575334
 20
1.860819475043173
 10
9.457910401162135
 20
1.855401004695972
 10
9.460619636335736
 20
1.855401004695972
 10
9.461974253922534
 20
1.85133715193557
 10
9.468747341856535
 20
1.84591868158837
 10
9.474165812203736
 20
1.84320944641477
 10
9.478229664964134
 20
1.841854828827969
 10
9.482293517724534
 20
1.843209446414769
 10
9.486357370484937
 20
1.845918681588369
 10
9.487711988071736
 20
1.85133715193557
 97
        0
 92
       23
 72
     0
 73
     1
 93
       23
 10
9.418626491144941
 20
1.912294943341568
 10
9.413208020797732
 20
1.915004178515174
 10
9.410498785624132
 20
1.915004178515174
 10
9.405080315276932
 20
1.915004178515174
 10
9.40237108010333
 20
1.915004178515175
 10
9.40237108010333
 20
1.912294943341573
 10
9.40778955045053
 20
1.910940325754774
 10
9.410498785624132
 20
1.908231090581174
 10
9.413208020797732
 20
1.905521855407573
 10
9.417271873558132
 20
1.905521855407573
 10
9.42269034390533
 20
1.905521855407573
 10
9.42404496149213
 20
1.902812620233985
 10
9.425399579078933
 20
1.898748767473573
 10
9.432172667012935
 20
1.894684914713173
 10
9.433527284599737
 20
1.893330297126369
 10
9.434881902186534
 20
1.890621061952772
 10
9.437591137360132
 20
1.891975679539571
 10
9.441654990120535
 20
1.896039532299975
 10
9.440300372533734
 20
1.901458002647173
 10
9.438945754946934
 20
1.905521855407572
 10
9.434881902186532
 20
1.908231090581175
 10
9.429463431839334
 20
1.908231090581175
 10
9.42269034390533
 20
1.909585708167974
 97
        0
 92
       23
 72
     0
 73
     1
 93
       15
 10
9.36579640525973
 20
1.920422648862373
 10
9.36444178767293
 20
1.923131884035976
 10
9.36173255249933
 20
1.925841119209573
 10
9.35766869973893
 20
1.925841119209575
 10
9.35631408215213
 20
1.923131884035974
 10
9.35495946456533
 20
1.920422648862373
 10
9.35360484697853
 20
1.919068031275574
 10
9.35089561180493
 20
1.919068031275575
 10
9.348186376631327
 20
1.917713413688776
 10
9.346831759044528
 20
1.915004178515174
 10
9.350895611804928
 20
1.913649560928374
 10
9.35495946456533
 20
1.912294943341573
 10
9.359023317325736
 20
1.913649560928374
 10
9.364441787672927
 20
1.915004178515174
 10
9.36579640525973
 20
1.917713413688775
 97
        0
 92
        7
 72
     0
 73
     1
 93
       73
 10
9.331930965589727
 20
1.917713413688773
 10
9.333285583176528
 20
1.920422648862374
 10
9.334640200763328
 20
1.921777266449174
 10
9.334640200763328
 20
1.925841119209574
 10
9.334640200763328
 20
1.929904971969974
 10
9.327867112829326
 20
1.929904971969976
 10
9.325157877655727
 20
1.928550354383176
 10
9.325157877655727
 20
1.931259589556774
 10
9.326512495242527
 20
1.932614207143574
 10
9.326512495242527
 20
1.933968824730376
 10
9.323803260068926
 20
1.936678059903975
 10
9.319739407308527
 20
1.940741912664375
 10
9.315675554548127
 20
1.943451147837976
 10
9.311611701787728
 20
1.943451147837977
 10
9.312966319374526
 20
1.947515000598376
 10
9.307547849027326
 20
1.947515000598375
 10
9.304838613853725
 20
1.950224235771978
 10
9.302129378680126
 20
1.954288088532377
 10
9.302129378680126
 20
1.955642706119175
 10
9.298065525919728
 20
1.954288088532377
 10
9.296710908332926
 20
1.952933470945577
 10
9.291292437985726
 20
1.952933470945576
 10
9.289937820398926
 20
1.956997323705977
 10
9.285873967638523
 20
1.954288088532374
 10
9.283164732464922
 20
1.952933470945573
 10
9.279100879704524
 20
1.950224235771976
 10
9.275037026944124
 20
1.950224235771975
 10
9.273682409357324
 20
1.946160383011576
 10
9.26961855659692
 20
1.943451147837978
 10
9.266909321423324
 20
1.942096530251176
 10
9.266909321423324
 20
1.939387295077575
 10
9.264200086249724
 20
1.936678059903975
 10
9.262845468662922
 20
1.935323442317174
 10
9.260136233489323
 20
1.933968824730374
 10
9.260136233489323
 20
1.931259589556775
 10
9.264200086249724
 20
1.929904971969974
 10
9.261490851076124
 20
1.927195736796376
 10
9.264200086249724
 20
1.927195736796375
 10
9.269618556596924
 20
1.927195736796375
 10
9.273682409357322
 20
1.927195736796374
 10
9.277746262117724
 20
1.925841119209573
 10
9.280455497291324
 20
1.920422648862375
 10
9.279100879704524
 20
1.916358796101974
 10
9.281810114878123
 20
1.913649560928374
 10
9.285873967638526
 20
1.915004178515175
 10
9.288583202812125
 20
1.913649560928374
 10
9.285873967638526
 20
1.910940325754776
 10
9.281810114878123
 20
1.909585708167974
 10
9.284519350051726
 20
1.906876472994373
 10
9.287228585225323
 20
1.906876472994373
 10
9.292647055572523
 20
1.906876472994374
 10
9.292647055572523
 20
1.905521855407573
 10
9.292647055572523
 20
1.904167237820773
 10
9.287228585225323
 20
1.902812620233974
 10
9.288583202812125
 20
1.898748767473573
 10
9.292647055572523
 20
1.890621061952773
 10
9.300774761093322
 20
1.886557209192377
 10
9.304838613853727
 20
1.882493356431973
 10
9.308902466614128
 20
1.878429503671571
 10
9.32109402489533
 20
1.877074886084773
 10
9.322448642482128
 20
1.877074886084772
 10
9.323803260068928
 20
1.881138738845174
 10
9.322448642482128
 20
1.886557209192372
 10
9.321094024895327
 20
1.891975679539572
 10
9.321094024895327
 20
1.897394149886773
 10
9.318384789721728
 20
1.900103385060374
 10
9.322448642482122
 20
1.90281262023397
 10
9.325157877655727
 20
1.904167237820774
 10
9.327867112829328
 20
1.908231090581175
 10
9.329221730416128
 20
1.910940325754772
 10
9.325157877655727
 20
1.912294943341573
 10
9.326512495242527
 20
1.916358796101975
 10
9.329221730416126
 20
1.916358796101973
 97
        0
 92
       23
 72
     0
 73
     1
 93
       57
 10
9.252008527968528
 20
1.910940325754765
 10
9.24794467520812
 20
1.916358796101986
 10
9.246590057621324
 20
1.917713413688773
 10
9.242526204860917
 20
1.916358796101972
 10
9.239816969687324
 20
1.915004178515173
 10
9.235753116926922
 20
1.916358796101975
 10
9.231689264166523
 20
1.912294943341573
 10
9.23033464657972
 20
1.910940325754774
 10
9.233043881753323
 20
1.908231090581174
 10
9.234398499340122
 20
1.906876472994373
 10
9.234398499340122
 20
1.905521855407573
 10
9.228980028992922
 20
1.905521855407573
 10
9.227625411406121
 20
1.904167237820774
 10
9.227625411406121
 20
1.902812620233975
 10
9.234398499340122
 20
1.901458002647173
 10
9.238462352100521
 20
1.901458002647173
 10
9.242526204860923
 20
1.901458002647173
 10
9.245235440034522
 20
1.904167237820773
 10
9.245235440034522
 20
1.901458002647173
 10
9.245235440034522
 20
1.898748767473572
 10
9.246590057621324
 20
1.897394149886774
 10
9.249299292794923
 20
1.897394149886773
 10
9.253363145555323
 20
1.894684914713173
 10
9.253363145555323
 20
1.893330297126373
 10
9.252008527968522
 20
1.891975679539572
 10
9.250653910381724
 20
1.891975679539573
 10
9.249299292794923
 20
1.889266444365974
 10
9.249299292794923
 20
1.886557209192373
 10
9.24523544003452
 20
1.883847974018771
 10
9.241171587274122
 20
1.883847974018771
 10
9.239816969687324
 20
1.881138738845173
 10
9.241171587274122
 20
1.881138738845172
 10
9.245235440034522
 20
1.881138738845172
 10
9.247944675208123
 20
1.881138738845172
 10
9.249299292794923
 20
1.879784121258372
 10
9.250653910381727
 20
1.878429503671569
 10
9.253363145555324
 20
1.877074886084772
 10
9.258781615902528
 20
1.87842950367157
 10
9.262845468662924
 20
1.879784121258372
 10
9.269618556596923
 20
1.87842950367157
 10
9.272327791770525
 20
1.879784121258373
 10
9.26826393901013
 20
1.882493356431974
 10
9.265554703836523
 20
1.883847974018773
 10
9.262845468662924
 20
1.887911826779173
 10
9.262845468662924
 20
1.889266444365973
 10
9.265554703836523
 20
1.889266444365973
 10
9.269618556596926
 20
1.886557209192372
 10
9.270973174183723
 20
1.886557209192371
 10
9.272327791770524
 20
1.890621061952773
 10
9.272327791770524
 20
1.893330297126372
 10
9.270973174183728
 20
1.894684914713172
 10
9.26420008624974
 20
1.897394149886773
 10
9.260136233489321
 20
1.898748767473572
 10
9.264200086249724
 20
1.900103385060373
 10
9.264200086249724
 20
1.902812620233974
 10
9.262845468662924
 20
1.905521855407574
 10
9.254717763142123
 20
1.906876472994374
 97
        0
 75
     0
 76
     1
 52
0.0
 41
0.07
 77
     0
 78
     1
 53
45.0
 43
6.716836822933007
 44
-5.936149347116631
 45
-0.0061871843353823
 46
0.0061871843353823
 79
     0
 47
0.0011782393811033
 98
       10
 10
9.20745667965038
 20
1.623179095035298
 10
9.20745667965038
 20
1.623179095035298
 10
9.271130638581626
 20
1.650278612291733
 10
9.242831097629967
 20
1.657348053316934
 10
9.51403499070011
 20
1.77399375015073
 10
9.479839691525207
 20
1.855292261879026
 10
9.413807462144625
 20
1.91066952321576
 10
9.360745835175244
 20
1.917738964240961
 10
9.310042478655198
 20
1.916560717396589
 10
9.241651945985318
 20
1.909491276371391
  0
HATCH
  5
3D5D
330
3D59
100
AcDbEntity
  8
TBTEXT
100
AcDbHatch
 10
0.0
 20
0.0
 30
0.0
210
0.0
220
0.0
230
1.0
  2
ANSI31
 70
     0
 71
     0
 91
       11
 92
        7
 72
     0
 73
     1
 93
       77
 10
8.320031628250069
 20
1.650853749089153
 10
8.322740863423672
 20
1.66033607219676
 10
8.32545009859727
 20
1.66981839530436
 10
8.328159333770872
 20
1.679300718411959
 10
8.328159333770873
 20
1.691492276693154
 10
8.329513951357672
 20
1.703683834974352
 10
8.329513951357672
 20
1.816117094678766
 10
8.330868568944474
 20
1.83101788813357
 10
8.333577804118073
 20
1.843209446414769
 10
8.336287039291669
 20
1.848627916761965
 10
8.338996274465272
 20
1.852691769522372
 10
8.343060127225671
 20
1.85675562228277
 10
8.347123979986073
 20
1.859464857456371
 10
8.261783072017668
 20
1.85946485745637
 10
8.268749676749787
 20
1.854239903907281
 10
8.273974630298868
 20
1.847273299175169
 10
8.275329247885667
 20
1.843209446414772
 10
8.278038483059268
 20
1.831017888133566
 10
8.279393100646068
 20
1.816117094678768
 10
8.279393100646068
 20
1.705038452561157
 10
8.278038483059264
 20
1.692846894279965
 10
8.275329247885665
 20
1.682009953585543
 10
8.271265395125267
 20
1.671173012891158
 10
8.26584692477806
 20
1.664399924957153
 10
8.259073836844069
 20
1.657626837023159
 10
8.250946131323264
 20
1.653562984262759
 10
8.240109190628864
 20
1.65085374908916
 10
8.227917632347665
 20
1.649499131502359
 10
8.21708069165326
 20
1.65085374908916
 10
8.206243750958867
 20
1.653562984262759
 10
8.198116045438063
 20
1.657626837023162
 10
8.18998833991726
 20
1.66439992495716
 10
8.18456986957006
 20
1.672527630477959
 10
8.180506016809662
 20
1.682009953585561
 10
8.177796781636065
 20
1.692846894279965
 10
8.177796781636063
 20
1.705038452561162
 10
8.177796781636063
 20
1.816117094678769
 10
8.177796781636063
 20
1.831017888133571
 10
8.181860634396461
 20
1.843209446414767
 10
8.183215251983263
 20
1.848627916761969
 10
8.187279104743663
 20
1.852691769522372
 10
8.189988339917265
 20
1.856755622282771
 10
8.194052192677665
 20
1.85946485745637
 10
8.110065902296057
 20
1.859464857456371
 10
8.114129755056458
 20
1.856755622282771
 10
8.116838990230061
 20
1.852691769522365
 10
8.120902842990459
 20
1.848627916761966
 10
8.12361207816406
 20
1.843209446414769
 10
8.12632131333766
 20
1.831017888133567
 10
8.127675930924461
 20
1.816117094678761
 10
8.12767593092446
 20
1.703683834974362
 10
8.12767593092446
 20
1.691492276693174
 10
8.129030548511267
 20
1.679300718411965
 10
8.130385166098058
 20
1.669818395304368
 10
8.133094401271663
 20
1.660336072196762
 10
8.137158254032055
 20
1.650853749089167
 10
8.14122210679246
 20
1.642726043568357
 10
8.14664057713967
 20
1.634598338047555
 10
8.15205904748686
 20
1.629179867700358
 10
8.158832135420862
 20
1.622406779766358
 10
8.166959840941663
 20
1.618342927005956
 10
8.175087546462464
 20
1.612924456658757
 10
8.183215251983254
 20
1.610215221485158
 10
8.194052192677665
 20
1.607505986311556
 10
8.204889133372065
 20
1.606151368724757
 10
8.215726074066477
 20
1.604796751137952
 10
8.227917632347665
 20
1.603442133551157
 10
8.240109190628864
 20
1.604796751137956
 10
8.252300748910057
 20
1.606151368724756
 10
8.263137689604468
 20
1.607505986311557
 10
8.27262001271207
 20
1.610215221485157
 10
8.282102335819669
 20
1.612924456658757
 10
8.290230041340473
 20
1.618342927005959
 10
8.298357746861273
 20
1.622406779766358
 10
8.303776217208473
 20
1.62917986770036
 10
8.310549305142473
 20
1.634598338047559
 10
8.314613157902867
 20
1.642726043568353
 97
        0
 92
        7
 72
     0
 73
     1
 93
       48
 10
8.427046417607277
 20
1.698265364627162
 10
8.482585738666076
 20
1.698265364627162
 10
8.504259620054883
 20
1.699619982213962
 10
8.52186964868328
 20
1.703683834974362
 10
8.529997354204083
 20
1.706393070147963
 10
8.53812505972489
 20
1.710456922908365
 10
8.544898147658882
 20
1.714520775668763
 10
8.550316618006084
 20
1.719939246015964
 10
8.555735088353279
 20
1.72535771636316
 10
8.561153558700497
 20
1.732130804297173
 10
8.565217411460887
 20
1.737549274644369
 10
8.567926646634485
 20
1.745676980165165
 10
8.570635881808085
 20
1.753804685685965
 10
8.573345116981685
 20
1.761932391206763
 10
8.574699734568483
 20
1.779542419835176
 10
8.573345116981688
 20
1.799861683637161
 10
8.570635881808085
 20
1.807989389157968
 10
8.567926646634485
 20
1.816117094678769
 10
8.56521741146088
 20
1.824244800199564
 10
8.561153558700484
 20
1.831017888133569
 10
8.555735088353284
 20
1.83643635848077
 10
8.550316618006082
 20
1.84185482882797
 10
8.544898147658898
 20
1.845918681588372
 10
8.538125059724885
 20
1.849982534348771
 10
8.529997354204083
 20
1.85269176952237
 10
8.52186964868328
 20
1.855401004695971
 10
8.502905002468085
 20
1.85811023986957
 10
8.47987650349248
 20
1.859464857456371
 10
8.359315538267271
 20
1.85946485745637
 10
8.363379391027674
 20
1.856755622282769
 10
8.367443243788072
 20
1.852691769522371
 10
8.370152478961673
 20
1.84862791676197
 10
8.372861714135272
 20
1.844564064001573
 10
8.375570949308875
 20
1.832372505720375
 10
8.376925566895673
 20
1.817471712265568
 10
8.376925566895673
 20
1.653562984262758
 10
8.375570949308875
 20
1.637307573221144
 10
8.372861714135272
 20
1.625116014939957
 10
8.370152478961671
 20
1.621052162179553
 10
8.366540165396875
 20
1.613827535049958
 10
8.359315538267275
 20
1.610215221485157
 10
8.444656446235676
 20
1.610215221485157
 10
8.440592593475278
 20
1.612924456658757
 10
8.436528740714877
 20
1.615633691832358
 10
8.433819505541276
 20
1.619697544592765
 10
8.431110270367677
 20
1.625116014939954
 10
8.428401035194076
 20
1.63730757322116
 10
8.427046417607277
 20
1.65356298426276
 97
        0
 92
       22
 72
     0
 73
     1
 93
       19
 10
8.427046417607277
 20
1.740258509817965
 10
8.427046417607277
 20
1.816117094678769
 10
8.47445803314528
 20
1.816117094678769
 10
8.486649591426481
 20
1.816117094678769
 10
8.496131914534077
 20
1.814762477091968
 10
8.50290500246808
 20
1.812053241918369
 10
8.509678090402083
 20
1.807989389157966
 10
8.515096560749283
 20
1.802570918810765
 10
8.517805795922882
 20
1.795797830876767
 10
8.520515031096481
 20
1.78902474294277
 10
8.520515031096481
 20
1.779542419835166
 10
8.520515031096481
 20
1.770060096727562
 10
8.517805795922868
 20
1.76193239120674
 10
8.51509656074928
 20
1.755159303272763
 10
8.509678090402083
 20
1.749740832925566
 10
8.50425962005488
 20
1.745676980165163
 10
8.496131914534084
 20
1.742967744991565
 10
8.488004209013285
 20
1.741613127404765
 10
8.47716726831888
 20
1.740258509817964
 97
        0
 92
        7
 72
     0
 73
     1
 93
       52
 10
8.768410049480899
 20
1.764641626380366
 10
8.756218491199691
 20
1.760577773619965
 10
8.749445403265696
 20
1.759223156033166
 10
8.739963080158095
 20
1.757868538446365
 10
8.650558319429289
 20
1.757868538446365
 10
8.65055831942929
 20
1.816117094678769
 10
8.731835374637294
 20
1.816117094678769
 10
8.752154638439295
 20
1.816117094678769
 10
8.7711192846545
 20
1.812053241918367
 10
8.7806016077621
 20
1.809344006744768
 10
8.788729313282916
 20
1.805280153984364
 10
8.798211636390496
 20
1.801216301223969
 10
8.806339341911295
 20
1.795797830876767
 10
8.798211636390551
 20
1.832372505720321
 10
8.794147783630097
 20
1.849982534348769
 10
8.795502401216895
 20
1.85404638710916
 10
8.796857018803697
 20
1.859464857456371
 10
8.582827440089288
 20
1.859464857456371
 10
8.586891292849685
 20
1.856755622282775
 10
8.59095514561009
 20
1.852691769522373
 10
8.593664380783686
 20
1.84862791676197
 10
8.596373615957283
 20
1.844564064001571
 10
8.599082851130886
 20
1.832372505720365
 10
8.600437468717686
 20
1.816117094678781
 10
8.600437468717685
 20
1.652208366675962
 10
8.599082851130884
 20
1.637307573221163
 10
8.596373615957283
 20
1.625116014939958
 10
8.59366438078369
 20
1.619697544592763
 10
8.590955145610089
 20
1.615633691832358
 10
8.586891292849685
 20
1.612924456658757
 10
8.582827440089284
 20
1.610215221485157
 10
8.800920871564095
 20
1.610215221485157
 10
8.798211636390496
 20
1.61563369183236
 10
8.796857018803697
 20
1.621052162179561
 10
8.798211636390494
 20
1.627825250113556
 10
8.802275489150876
 20
1.640016808394762
 10
8.815821665018898
 20
1.682009953585562
 10
8.809048577084898
 20
1.675236865651561
 10
8.800920871564088
 20
1.669818395304359
 10
8.791438548456494
 20
1.664399924957158
 10
8.781956225348898
 20
1.66033607219676
 10
8.771119284654498
 20
1.656272219436361
 10
8.760282343960085
 20
1.654917601849558
 10
8.748090785678896
 20
1.65356298426276
 10
8.735899227397692
 20
1.652208366675959
 10
8.650558319429289
 20
1.652208366675959
 10
8.650558319429287
 20
1.715875393255562
 10
8.729126139463691
 20
1.715875393255562
 10
8.735899227397692
 20
1.715875393255562
 10
8.741317697744895
 20
1.718584628429162
 10
8.746736168092093
 20
1.724003098776358
 10
8.750800020852497
 20
1.729421569123566
 97
        0
 92
        7
 72
     0
 73
     1
 93
       64
 10
9.00411350958411
 20
1.719939246015964
 10
9.014950450278508
 20
1.725357716363163
 10
9.024432773386112
 20
1.732130804297164
 10
9.032560478906907
 20
1.740258509817966
 10
9.039333566840911
 20
1.74974083292557
 10
9.04339741960131
 20
1.760577773619961
 10
9.046106654774913
 20
1.772769331901169
 10
9.04746127236171
 20
1.784960890182364
 10
9.046106654774912
 20
1.797152448463568
 10
9.044752037188111
 20
1.80934400674477
 10
9.040688184427712
 20
1.818826329852369
 10
9.036624331667312
 20
1.828308652959962
 10
9.031205861320107
 20
1.836436358480777
 10
9.024432773386106
 20
1.843209446414783
 10
9.016305067865307
 20
1.849982534348769
 10
9.008177362344506
 20
1.854046387109171
 10
8.99598580406331
 20
1.856755622282771
 10
8.981085010608508
 20
1.858110239869571
 10
8.945864953351713
 20
1.85946485745637
 10
8.8253039881265
 20
1.859464857456371
 10
8.8293678408869
 20
1.856755622282768
 10
8.833431693647295
 20
1.852691769522375
 10
8.836140928820901
 20
1.848627916761969
 10
8.8374955464077
 20
1.84456406400157
 10
8.841559399168101
 20
1.832372505720369
 10
8.8429140167549
 20
1.816117094678753
 10
8.8429140167549
 20
1.653562984262768
 10
8.8415593991681
 20
1.63730757322116
 10
8.8388501639945
 20
1.62511601493996
 10
8.836140928820909
 20
1.621052162179567
 10
8.833431693647302
 20
1.615633691832358
 10
8.8293678408869
 20
1.612924456658757
 10
8.825303988126498
 20
1.610215221485157
 10
8.910644896094903
 20
1.610215221485157
 10
8.903871808160902
 20
1.613601765452158
 10
8.8998079554005
 20
1.619697544592752
 10
8.897098720226907
 20
1.625116014939952
 10
8.893034867466502
 20
1.637307573221161
 10
8.893034867466502
 20
1.65356298426276
 10
8.893034867466502
 20
1.705038452561162
 10
8.916063366442103
 20
1.705038452561162
 10
8.924191071962907
 20
1.703683834974365
 10
8.930964159896906
 20
1.702329217387561
 10
8.937737247830906
 20
1.700974599800762
 10
8.944510335764903
 20
1.69691074704036
 10
8.949928806112107
 20
1.692846894279962
 10
8.955347276459309
 20
1.688783041519561
 10
8.960765746806507
 20
1.682009953585561
 10
8.966184217153709
 20
1.675236865651564
 10
8.975666540261308
 20
1.66033607219676
 10
8.982439628195309
 20
1.646789896328757
 10
8.986503480955708
 20
1.634598338047557
 10
8.986503480955708
 20
1.625116014939957
 10
8.98650348095571
 20
1.619246005397159
 10
8.981085010608508
 20
1.610215221485157
 10
9.069135153750512
 20
1.610215221485157
 10
9.062362065816515
 20
1.615633691832356
 10
9.055588977882518
 20
1.62376139735315
 10
9.046106654774913
 20
1.638662190807939
 10
9.027142008559752
 20
1.67388224806482
 10
9.020368920625703
 20
1.686073806345969
 10
9.012241215104911
 20
1.698265364627164
 10
9.002758891997306
 20
1.707747687734761
 10
8.991921951302906
 20
1.715875393255562
 97
        0
 92
       22
 72
     0
 73
     1
 93
       19
 10
8.8930348674665
 20
1.747031597751965
 10
8.8930348674665
 20
1.816117094678769
 10
8.947219570938506
 20
1.816117094678769
 10
8.958056511632906
 20
1.816117094678769
 10
8.968893452327311
 20
1.814762477091968
 10
8.975666540261306
 20
1.813407859505169
 10
8.982439628195316
 20
1.809344006744765
 10
8.987858098542509
 20
1.80528015398437
 10
8.99056733371611
 20
1.798507066050368
 10
8.993276568889708
 20
1.791733978116369
 10
8.993276568889708
 20
1.782251655008766
 10
8.993276568889708
 20
1.772769331901167
 10
8.99056733371611
 20
1.765996243967166
 10
8.987858098542507
 20
1.759223156033164
 10
8.98243962819531
 20
1.755159303272768
 10
8.97566654026131
 20
1.751095450512366
 10
8.968893452327308
 20
1.749740832925565
 10
8.958056511632906
 20
1.748386215338764
 10
8.947219570938504
 20
1.747031597751965
 97
        0
 92
        7
 72
     0
 73
     1
 93
      103
 10
9.783018621994152
 20
1.738903892231165
 10
9.772181681299749
 20
1.747031597751968
 10
9.759990123018548
 20
1.753804685685966
 10
9.745089329563752
 20
1.759223156033164
 10
9.727479300935371
 20
1.76328700879356
 10
9.699032331612537
 20
1.768705479140767
 10
9.677358450223755
 20
1.774123949487965
 10
9.67058536228975
 20
1.776833184661566
 10
9.665166891942542
 20
1.780897037421965
 10
9.661103039182146
 20
1.787670125355966
 10
9.661103039182146
 20
1.795797830876767
 10
9.661103039182144
 20
1.801216301223965
 10
9.662457656768948
 20
1.806634771571167
 10
9.66652150952934
 20
1.810698624331566
 10
9.670585362289751
 20
1.813407859505169
 10
9.676003832636942
 20
1.816117094678769
 10
9.682776920570944
 20
1.818826329852369
 10
9.689550008504947
 20
1.820180947439169
 10
9.699032331612546
 20
1.820180947439168
 10
9.709869272306944
 20
1.820180947439168
 10
9.72206083058815
 20
1.818826329852369
 10
9.732897771282557
 20
1.816117094678767
 10
9.742380094390152
 20
1.813407859505168
 10
9.751862417497755
 20
1.810698624331569
 10
9.761344740605354
 20
1.806634771571167
 10
9.769472446126152
 20
1.801216301223967
 10
9.777600151646952
 20
1.795797830876768
 10
9.789791709928155
 20
1.859464857456371
 10
9.785727857167753
 20
1.858110239869571
 10
9.78166400440735
 20
1.856755622282771
 10
9.768117828539351
 20
1.858110239869571
 10
9.749153182324164
 20
1.860819475043169
 10
9.72612468334855
 20
1.863528710216772
 10
9.700386949199345
 20
1.864883327803571
 10
9.680067685397345
 20
1.863528710216772
 10
9.67058536228975
 20
1.862174092629971
 10
9.66110303918213
 20
1.859464857456369
 10
9.652975333661347
 20
1.856755622282771
 10
9.64484762814054
 20
1.85269176952237
 10
9.63807454020653
 20
1.847273299175153
 10
9.632656069859342
 20
1.843209446414765
 10
9.625882981925342
 20
1.837790976067568
 10
9.621819129164942
 20
1.83101788813357
 10
9.617755276404543
 20
1.824244800199569
 10
9.613691423644141
 20
1.817471712265578
 10
9.610982188470542
 20
1.810698624331572
 10
9.609627570883744
 20
1.802570918810768
 10
9.608272953296943
 20
1.794443213289967
 10
9.606918335710143
 20
1.786315507769165
 10
9.608272953296947
 20
1.772769331901159
 10
9.612336806057343
 20
1.760577773619957
 10
9.617755276404544
 20
1.749740832925557
 10
9.625882981925344
 20
1.740258509817967
 10
9.636719922619742
 20
1.732130804297166
 10
9.65026609848773
 20
1.726712333949967
 10
9.66516689194254
 20
1.721293863602764
 10
9.68277692057095
 20
1.717230010842364
 10
9.709869272306955
 20
1.713166158081961
 10
9.720706213001355
 20
1.71045692290836
 10
9.730188536108948
 20
1.707747687734764
 10
9.736961624042953
 20
1.703683834974362
 10
9.742380094390155
 20
1.698265364627157
 10
9.746443947150551
 20
1.691492276693164
 10
9.747798564737352
 20
1.68200995358556
 10
9.74644394715055
 20
1.675236865651558
 10
9.743734711976948
 20
1.668463777717555
 10
9.739670859216558
 20
1.663045307370364
 10
9.734252388869352
 20
1.65762683702316
 10
9.72747930093535
 20
1.654917601849558
 10
9.71799697782775
 20
1.652208366675959
 10
9.707160037133349
 20
1.650853749089159
 10
9.696323096438949
 20
1.649499131502359
 10
9.684131538157748
 20
1.649499131502358
 10
9.673294597463345
 20
1.65085374908916
 10
9.662457656768947
 20
1.65356298426276
 10
9.651620716074545
 20
1.656272219436359
 10
9.628592217098946
 20
1.665754542543964
 10
9.605563718123342
 20
1.677946100825161
 10
9.619109893991343
 20
1.607505986311557
 10
9.624528364338534
 20
1.608860603898356
 10
9.628592217098943
 20
1.610215221485157
 10
9.640783775380141
 20
1.608860603898358
 10
9.655684568834943
 20
1.607505986311556
 10
9.674649215050144
 20
1.604796751137957
 10
9.696323096438947
 20
1.603442133551157
 10
9.720706213001346
 20
1.604796751137956
 10
9.731543153695746
 20
1.607505986311555
 10
9.741025476803351
 20
1.610215221485157
 10
9.75050779991095
 20
1.612924456658757
 10
9.758635505431752
 20
1.616988309419157
 10
9.766763210952552
 20
1.621052162179557
 10
9.773536298886553
 20
1.626470632526758
 10
9.780309386820555
 20
1.631889102873957
 10
9.785727857167753
 20
1.638662190807953
 10
9.78979170992815
 20
1.645435278741947
 10
9.793855562688552
 20
1.65356298426276
 10
9.796564797862153
 20
1.66169068978356
 10
9.799274033035749
 20
1.669818395304354
 10
9.800628650622555
 20
1.679300718411972
 10
9.800628650622556
 20
1.688783041519563
 10
9.799274033035754
 20
1.703683834974365
 10
9.796564797862155
 20
1.717230010842365
 10
9.791146327514955
 20
1.729421569123563
 97
        0
 92
        7
 72
     0
 73
     1
 93
       52
 10
10.00111205346896
 20
1.764641626380364
 10
9.988920495187765
 20
1.760577773619965
 10
9.98214740725377
 20
1.759223156033166
 10
9.974019701732962
 20
1.757868538446365
 10
9.883260323417359
 20
1.757868538446365
 10
9.883260323417357
 20
1.816117094678769
 10
9.964537378625362
 20
1.816117094678769
 10
9.984856642427358
 20
1.816117094678769
 10
10.00382128864257
 20
1.812053241918366
 10
10.01330361175017
 20
1.809344006744768
 10
10.02278593485776
 20
1.805280153984372
 10
10.03091364037857
 20
1.801216301223962
 10
10.04039596348616
 20
1.795797830876768
 10
10.03091364037857
 20
1.832372505720377
 10
10.02684978761816
 20
1.849982534348767
 10
10.02820440520497
 20
1.854046387109177
 10
10.03091364037856
 20
1.85946485745637
 10
9.815529444077354
 20
1.85946485745637
 10
9.819593296837754
 20
1.856755622282766
 10
9.823657149598162
 20
1.852691769522366
 10
9.826366384771754
 20
1.84862791676197
 10
9.829075619945353
 20
1.844564064001567
 10
9.831784855118958
 20
1.83237250572036
 10
9.833139472705755
 20
1.816117094678778
 10
9.833139472705755
 20
1.652208366675939
 10
9.831784855118954
 20
1.63730757322115
 10
9.829075619945355
 20
1.62511601493996
 10
9.826366384771749
 20
1.619697544592747
 10
9.823657149598155
 20
1.615633691832358
 10
9.819593296837756
 20
1.612924456658757
 10
9.815529444077352
 20
1.610215221485157
 10
10.03362287555217
 20
1.610215221485157
 10
10.03091364037857
 20
1.615633691832355
 10
10.02955902279177
 20
1.621052162179556
 10
10.03091364037857
 20
1.62782525011356
 10
10.03497749313899
 20
1.64001680839462
 10
10.04852366900697
 20
1.682009953585558
 10
10.04175058107297
 20
1.675236865651561
 10
10.03362287555217
 20
1.669818395304363
 10
10.02414055244457
 20
1.664399924957163
 10
10.01465822933696
 20
1.66033607219676
 10
10.00517590622936
 20
1.65627221943636
 10
9.992984347948154
 20
1.654917601849558
 10
9.982147407253747
 20
1.653562984262758
 10
9.968601231385763
 20
1.652208366675959
 10
9.883260323417359
 20
1.652208366675959
 10
9.883260323417359
 20
1.715875393255562
 10
9.961828143451763
 20
1.715875393255562
 10
9.968601231385763
 20
1.715875393255562
 10
9.975374319319762
 20
1.718584628429164
 10
9.979438172080163
 20
1.724003098776363
 10
9.983502024840568
 20
1.729421569123569
 97
        0
 92
        7
 72
     0
 73
     1
 93
       33
 10
10.22326933770418
 20
1.839145593654351
 10
10.2198212202105
 20
1.847765887388556
 10
10.22191472011737
 20
1.854046387109181
 10
10.22326933770417
 20
1.85946485745637
 10
10.13792842973577
 20
1.859464857456371
 10
10.14063766490937
 20
1.849982534348771
 10
10.13928304732257
 20
1.845918681588369
 10
10.13792842973577
 20
1.839145593654378
 10
10.06477908004857
 20
1.654917601849528
 10
10.05394213935416
 20
1.63053448528714
 10
10.04852366900697
 20
1.619697544592754
 10
10.04039596348617
 20
1.610215221485157
 10
10.11896378352057
 20
1.610215221485157
 10
10.11625454834697
 20
1.614279074245556
 10
10.11354531317337
 20
1.619697544592758
 10
10.11219069558657
 20
1.626470632526763
 10
10.11219069558657
 20
1.633243720460758
 10
10.11219069558657
 20
1.641371425981554
 10
10.11354531317337
 20
1.649499131502354
 10
10.11896378352057
 20
1.66169068978356
 10
10.23681551357218
 20
1.66169068978356
 10
10.24223398391937
 20
1.645435278741961
 10
10.24358860150617
 20
1.638662190808008
 10
10.24494321909298
 20
1.630534485287159
 10
10.24494321909298
 20
1.625116014939958
 10
10.24358860150617
 20
1.619697544592757
 10
10.24087936633258
 20
1.614279074245559
 10
10.23681551357218
 20
1.610215221485157
 10
10.31538333360658
 20
1.610215221485157
 10
10.30861024567258
 20
1.619697544592764
 10
10.30183715773858
 20
1.630534485287149
 10
10.29641868739139
 20
1.641371425981547
 10
10.29100021704419
 20
1.654917601849542
 97
        0
 92
       22
 72
     0
 73
     1
 93
        3
 10
10.13521919456217
 20
1.706393070147963
 10
10.17721233975297
 20
1.822890182612772
 10
10.22056010253058
 20
1.706393070147963
 97
        0
 92
        7
 72
     0
 73
     1
 93
       36
 10
10.5050297957586
 20
1.627825250113573
 10
10.50909364851902
 20
1.640016808394758
 10
10.52263982438699
 20
1.682009953585562
 10
10.51451211886619
 20
1.675236865651567
 10
10.50502979575859
 20
1.668463777717562
 10
10.49554747265099
 20
1.663045307370363
 10
10.48606514954339
 20
1.658981454609959
 10
10.47658282643579
 20
1.656272219436359
 10
10.46574588574139
 20
1.653562984262759
 10
10.45490894504699
 20
1.65356298426276
 10
10.44271738676579
 20
1.652208366675959
 10
10.38446883053339
 20
1.652208366675959
 10
10.38446883053338
 20
1.816117094678768
 10
10.38582344812018
 20
1.831017888133552
 10
10.38853268329379
 20
1.843209446414775
 10
10.39124191846739
 20
1.848627916761975
 10
10.39395115364098
 20
1.852691769522372
 10
10.39801500640138
 20
1.856755622282769
 10
10.40207885916178
 20
1.859464857456371
 10
10.31673795119338
 20
1.85946485745637
 10
10.32080180395379
 20
1.856755622282767
 10
10.32486565671418
 20
1.852691769522372
 10
10.32757489188778
 20
1.84862791676197
 10
10.33028412706138
 20
1.844564064001568
 10
10.33299336223498
 20
1.832372505720342
 10
10.33434797982178
 20
1.816117094678766
 10
10.33434797982178
 20
1.652208366675963
 10
10.33299336223498
 20
1.637307573221153
 10
10.33028412706138
 20
1.625116014939959
 10
10.32757489188778
 20
1.621052162179547
 10
10.32486565671418
 20
1.615633691832357
 10
10.32080180395378
 20
1.612924456658757
 10
10.31673795119338
 20
1.610215221485157
 10
10.50638441334539
 20
1.610215221485158
 10
10.50367517817179
 20
1.615633691832355
 10
10.50232056058499
 20
1.62105216217956
 97
        0
 75
     0
 76
     1
 52
0.0
 41
0.1
 77
     0
 78
     1
 53
45.0
 43
0.0
 44
0.0000000000000009
 45
-0.0088388347648318
 46
0.0088388347648318
 79
     0
 47
0.0054714440850857
 98
       11
 10
8.21196862590386
 20
1.642576743488942
 10
8.40361672791656
 20
1.691819741676288
 10
8.40361672791656
 20
1.691819741676288
 10
8.633594450331803
 20
1.730119851377556
 10
8.863572172747045
 20
1.719176962891478
 10
8.863572172747045
 20
1.719176962891478
 10
9.734202103124767
 20
1.730119851377556
 10
9.876569278694188
 20
1.735591295620594
 10
10.10654700110943
 20
1.686348297433249
 10
10.10654700110943
 20
1.686348297433249
 10
10.39675698884865
 20
1.626162410759826
  0
LWPOLYLINE
  5
3D5E
330
3D59
100
AcDbEntity
  8
TBTEXT
100
AcDbPolyline
 90
        4
 70
     0
 43
0.0054184703472003
 10
9.180090648814774
 20
1.541129724558353
 10
7.858107031151245
 20
1.541129724558353
 10
7.858107031151245
 20
1.932614207143575
 10
9.160910495256218
 20
1.932614207143575
  0
LWPOLYLINE
  5
3D5F
330
3D59
100
AcDbEntity
  8
TBTEXT
100
AcDbPolyline
 90
       81
 70
     0
 43
0.0054184703472003
 10
8.910644896094905
 20
1.610215221485157
 10
8.8253039881265
 20
1.610215221485157
 10
8.8253039881265
 20
1.610215221485157
 10
8.8293678408869
 20
1.612924456658757
 10
8.8334316936473
 20
1.615633691832358
 10
8.8361409288209
 20
1.621052162179558
 10
8.8388501639945
 20
1.625116014939957
 10
8.8415593991681
 20
1.637307573221158
 10
8.8429140167549
 20
1.65356298426276
 10
8.8429140167549
 20
1.816117094678769
 10
8.8429140167549
 20
1.816117094678769
 10
8.8415593991681
 20
1.832372505720369
 10
8.8374955464077
 20
1.84456406400157
 10
8.8361409288209
 20
1.84862791676197
 10
8.8334316936473
 20
1.85269176952237
 10
8.8293678408869
 20
1.856755622282771
 10
8.8253039881265
 20
1.85946485745637
 10
8.945864953351707
 20
1.85946485745637
 10
8.945864953351707
 20
1.85946485745637
 10
8.981085010608508
 20
1.858110239869571
 10
8.99598580406331
 20
1.856755622282771
 10
9.00817736234451
 20
1.85404638710917
 10
9.00817736234451
 20
1.85404638710917
 10
9.016305067865307
 20
1.849982534348771
 10
9.02443277338611
 20
1.84320944641477
 10
9.03120586132011
 20
1.83643635848077
 10
9.03662433166731
 20
1.828308652959969
 10
9.040688184427712
 20
1.818826329852369
 10
9.044752037188111
 20
1.809344006744768
 10
9.046106654774912
 20
1.797152448463568
 10
9.047461272361712
 20
1.784960890182367
 10
9.047461272361712
 20
1.784960890182367
 10
9.046106654774912
 20
1.772769331901166
 10
9.04339741960131
 20
1.760577773619965
 10
9.039333566840911
 20
1.749740832925565
 10
9.03256047890691
 20
1.740258509817964
 10
9.02443277338611
 20
1.732130804297164
 10
9.01495045027851
 20
1.725357716363164
 10
9.00411350958411
 20
1.719939246015964
 10
8.991921951302908
 20
1.715875393255562
 10
8.991921951302908
 20
1.715875393255562
 10
9.00275889199731
 20
1.707747687734762
 10
9.01224121510491
 20
1.698265364627162
 10
9.02036892062571
 20
1.686073806345961
 10
9.02714200855971
 20
1.673882248064761
 10
9.02714200855971
 20
1.673882248064761
 10
9.046106654774912
 20
1.638662190807958
 10
9.055588977882511
 20
1.623761397353158
 10
9.062362065816513
 20
1.615633691832358
 10
9.069135153750514
 20
1.610215221485157
 10
8.981085010608508
 20
1.610215221485157
 10
8.981085010608508
 20
1.610215221485157
 10
8.985148863368908
 20
1.616988309419157
 10
8.986503480955708
 20
1.621052162179558
 10
8.986503480955708
 20
1.625116014939957
 10
8.986503480955708
 20
1.625116014939957
 10
8.986503480955708
 20
1.634598338047559
 10
8.982439628195309
 20
1.646789896328759
 10
8.975666540261308
 20
1.66033607219676
 10
8.966184217153707
 20
1.675236865651561
 10
8.966184217153707
 20
1.675236865651561
 10
8.960765746806507
 20
1.682009953585561
 10
8.955347276459307
 20
1.688783041519561
 10
8.949928806112107
 20
1.692846894279962
 10
8.944510335764903
 20
1.696910747040361
 10
8.937737247830906
 20
1.700974599800762
 10
8.930964159896906
 20
1.702329217387561
 10
8.924191071962905
 20
1.703683834974362
 10
8.916063366442105
 20
1.705038452561162
 10
8.893034867466502
 20
1.705038452561162
 10
8.893034867466502
 20
1.65356298426276
 10
8.893034867466502
 20
1.65356298426276
 10
8.893034867466502
 20
1.637307573221158
 10
8.897098720226904
 20
1.625116014939957
 10
8.899807955400503
 20
1.619697544592757
 10
8.902517190574104
 20
1.615633691832358
 10
8.905226425747705
 20
1.612924456658757
 10
8.910644896094905
 20
1.610215221485157
 10
8.910644896094905
 20
1.610215221485157
 10
8.910644896094905
 20
1.610215221485157
 10
8.910644896094905
 20
1.610215221485157
  0
LWPOLYLINE
  5
3D60
102
{ACAD_REACTORS
330
3D63
102
}
330
3D59
100
AcDbEntity
  8
TBTEXT
100
AcDbPolyline
 90
      121
 70
     0
 43
0.0054184703472003
 10
7.989504937070853
 20
1.649499131502359
 10
7.989504937070853
 20
1.649499131502359
 10
8.001696495352054
 20
1.650853749089159
 10
8.012533436046454
 20
1.652208366675959
 10
8.020661141567254
 20
1.654917601849559
 10
8.028788847088055
 20
1.657626837023159
 10
8.034207317435255
 20
1.66304530737036
 10
8.038271170195655
 20
1.66846377771756
 10
8.040980405369256
 20
1.675236865651561
 10
8.040980405369256
 20
1.682009953585561
 10
8.040980405369256
 20
1.682009953585561
 10
8.039625787782455
 20
1.691492276693161
 10
8.036916552608856
 20
1.698265364627162
 10
8.031498082261654
 20
1.703683834974362
 10
8.024724994327652
 20
1.707747687734762
 10
8.015242671220054
 20
1.710456922908362
 10
8.004405730525653
 20
1.713166158081963
 10
7.975958761202852
 20
1.717230010842363
 10
7.975958761202852
 20
1.717230010842363
 10
7.958348732574451
 20
1.721293863602763
 10
7.94344793911965
 20
1.726712333949964
 10
7.931256380838449
 20
1.732130804297164
 10
7.920419440144048
 20
1.740258509817964
 10
7.912291734623247
 20
1.749740832925565
 10
7.905518646689246
 20
1.760577773619965
 10
7.902809411515647
 20
1.772769331901166
 10
7.901454793928847
 20
1.786315507769167
 10
7.901454793928847
 20
1.786315507769167
 10
7.901454793928847
 20
1.794443213289967
 10
7.902809411515647
 20
1.802570918810768
 10
7.905518646689246
 20
1.810698624331569
 10
7.908227881862847
 20
1.817471712265569
 10
7.910937117036448
 20
1.824244800199569
 10
7.915000969796848
 20
1.83101788813357
 10
7.920419440144048
 20
1.83779097606757
 10
7.925837910491248
 20
1.84320944641477
 10
7.932610998425248
 20
1.84727329917517
 10
7.939384086359249
 20
1.85269176952237
 10
7.947511791880049
 20
1.856755622282771
 10
7.95563949740085
 20
1.85946485745637
 10
7.963767202921649
 20
1.862174092629971
 10
7.973249526029251
 20
1.863528710216772
 10
7.994923407418053
 20
1.864883327803571
 10
7.994923407418053
 20
1.864883327803571
 10
8.020661141567254
 20
1.863528710216772
 10
8.043689640542857
 20
1.860819475043171
 10
8.061299669171257
 20
1.858110239869571
 10
8.076200462626057
 20
1.856755622282771
 10
8.076200462626057
 20
1.856755622282771
 10
8.080264315386456
 20
1.858110239869571
 10
8.084328168146858
 20
1.85946485745637
 10
8.072136609865657
 20
1.795797830876767
 10
8.072136609865657
 20
1.795797830876767
 10
8.064008904344856
 20
1.801216301223967
 10
8.055881198824055
 20
1.806634771571168
 10
8.046398875716456
 20
1.810698624331569
 10
8.036916552608856
 20
1.813407859505168
 10
8.026079611914454
 20
1.816117094678769
 10
8.015242671220054
 20
1.818826329852369
 10
8.004405730525653
 20
1.820180947439168
 10
7.992214172244452
 20
1.820180947439168
 10
7.992214172244452
 20
1.820180947439168
 10
7.984086466723651
 20
1.820180947439168
 10
7.975958761202852
 20
1.818826329852369
 10
7.969185673268851
 20
1.816117094678769
 10
7.963767202921649
 20
1.813407859505168
 10
7.95970335016125
 20
1.810698624331569
 10
7.956994114987651
 20
1.806634771571168
 10
7.95563949740085
 20
1.801216301223967
 10
7.95428487981405
 20
1.795797830876767
 10
7.95428487981405
 20
1.795797830876767
 10
7.95563949740085
 20
1.787670125355966
 10
7.958348732574451
 20
1.780897037421966
 10
7.963767202921649
 20
1.776833184661566
 10
7.971894908442452
 20
1.774123949487966
 10
7.992214172244452
 20
1.768705479140765
 10
8.022015759154055
 20
1.763287008793565
 10
8.022015759154055
 20
1.763287008793565
 10
8.038271170195655
 20
1.759223156033166
 10
8.053171963650456
 20
1.753804685685965
 10
8.066718139518457
 20
1.747031597751965
 10
8.076200462626057
 20
1.738903892231165
 10
8.084328168146858
 20
1.729421569123563
 10
8.089746638494058
 20
1.717230010842363
 10
8.093810491254459
 20
1.703683834974362
 10
8.09516510884126
 20
1.688783041519561
 10
8.09516510884126
 20
1.688783041519561
 10
8.093810491254459
 20
1.679300718411961
 10
8.093810491254459
 20
1.66981839530436
 10
8.091101256080856
 20
1.66169068978356
 10
8.088392020907259
 20
1.65356298426276
 10
8.084328168146858
 20
1.645435278741959
 10
8.080264315386456
 20
1.638662190807958
 10
8.074845845039256
 20
1.631889102873958
 10
8.068072757105258
 20
1.626470632526758
 10
8.061299669171257
 20
1.621052162179558
 10
8.053171963650456
 20
1.616988309419157
 10
8.045044258129655
 20
1.612924456658757
 10
8.035561935022052
 20
1.610215221485157
 10
8.024724994327652
 20
1.607505986311557
 10
8.013888053633252
 20
1.604796751137956
 10
7.989504937070853
 20
1.603442133551157
 10
7.989504937070853
 20
1.603442133551157
 10
7.967831055682051
 20
1.604796751137956
 10
7.95022102705365
 20
1.607505986311557
 10
7.933965616012049
 20
1.608860603898357
 10
7.923128675317649
 20
1.610215221485157
 10
7.923128675317649
 20
1.610215221485157
 10
7.917710204970449
 20
1.608860603898357
 10
7.912291734623247
 20
1.607505986311557
 10
7.900100176342048
 20
1.677946100825161
 10
7.900100176342048
 20
1.677946100825161
 10
7.923128675317649
 20
1.66575454254396
 10
7.946157174293249
 20
1.65627221943636
 10
7.956994114987651
 20
1.65356298426276
 10
7.967831055682051
 20
1.650853749089159
 10
7.978667996376453
 20
1.649499131502359
 10
7.989504937070853
 20
1.649499131502359
 10
7.989504937070853
 20
1.649499131502359
 10
7.989504937070853
 20
1.649499131502359
 10
7.989504937070853
 20
1.649499131502359
  0
LWPOLYLINE
  5
3D61
330
3D59
100
AcDbEntity
  8
TBTEXT
100
AcDbPolyline
 90
       90
 70
     0
 43
0.0054184703472003
 10
8.227917632347665
 20
1.603442133551157
 10
8.227917632347665
 20
1.603442133551157
 10
8.215726074066465
 20
1.604796751137956
 10
8.204889133372065
 20
1.606151368724757
 10
8.194052192677665
 20
1.607505986311557
 10
8.183215251983263
 20
1.610215221485157
 10
8.175087546462462
 20
1.612924456658757
 10
8.166959840941663
 20
1.618342927005957
 10
8.158832135420862
 20
1.622406779766357
 10
8.15205904748686
 20
1.629179867700358
 10
8.14664057713966
 20
1.634598338047559
 10
8.14122210679246
 20
1.642726043568359
 10
8.13715825403206
 20
1.650853749089159
 10
8.133094401271661
 20
1.66033607219676
 10
8.13038516609806
 20
1.66981839530436
 10
8.129030548511262
 20
1.679300718411961
 10
8.12767593092446
 20
1.691492276693161
 10
8.12767593092446
 20
1.703683834974362
 10
8.12767593092446
 20
1.816117094678769
 10
8.12767593092446
 20
1.816117094678769
 10
8.12632131333766
 20
1.83101788813357
 10
8.12361207816406
 20
1.84320944641477
 10
8.120902842990459
 20
1.84862791676197
 10
8.11683899023006
 20
1.85269176952237
 10
8.114129755056458
 20
1.856755622282771
 10
8.110065902296059
 20
1.85946485745637
 10
8.194052192677665
 20
1.85946485745637
 10
8.194052192677665
 20
1.85946485745637
 10
8.189988339917264
 20
1.856755622282771
 10
8.187279104743665
 20
1.85269176952237
 10
8.183215251983263
 20
1.84862791676197
 10
8.181860634396463
 20
1.84320944641477
 10
8.177796781636063
 20
1.83101788813357
 10
8.177796781636063
 20
1.816117094678769
 10
8.177796781636063
 20
1.705038452561162
 10
8.177796781636063
 20
1.705038452561162
 10
8.177796781636063
 20
1.692846894279962
 10
8.180506016809664
 20
1.682009953585561
 10
8.184569869570064
 20
1.672527630477961
 10
8.189988339917264
 20
1.66439992495716
 10
8.198116045438065
 20
1.657626837023159
 10
8.206243750958864
 20
1.65356298426276
 10
8.217080691653265
 20
1.650853749089159
 10
8.227917632347665
 20
1.649499131502359
 10
8.227917632347665
 20
1.649499131502359
 10
8.240109190628864
 20
1.650853749089159
 10
8.250946131323268
 20
1.65356298426276
 10
8.259073836844069
 20
1.657626837023159
 10
8.265846924778069
 20
1.66439992495716
 10
8.271265395125267
 20
1.67117301289116
 10
8.275329247885669
 20
1.682009953585561
 10
8.278038483059268
 20
1.692846894279962
 10
8.279393100646068
 20
1.705038452561162
 10
8.279393100646068
 20
1.816117094678769
 10
8.279393100646068
 20
1.816117094678769
 10
8.278038483059268
 20
1.83101788813357
 10
8.275329247885669
 20
1.84320944641477
 10
8.273974630298868
 20
1.84727329917517
 10
8.269910777538469
 20
1.85269176952237
 10
8.267201542364868
 20
1.855401004695971
 10
8.261783072017668
 20
1.85946485745637
 10
8.347123979986073
 20
1.85946485745637
 10
8.347123979986073
 20
1.85946485745637
 10
8.343060127225671
 20
1.856755622282771
 10
8.338996274465272
 20
1.85269176952237
 10
8.33628703929167
 20
1.84862791676197
 10
8.333577804118072
 20
1.84320944641477
 10
8.330868568944473
 20
1.83101788813357
 10
8.329513951357672
 20
1.816117094678769
 10
8.329513951357672
 20
1.703683834974362
 10
8.329513951357672
 20
1.703683834974362
 10
8.328159333770872
 20
1.691492276693161
 10
8.328159333770872
 20
1.679300718411961
 10
8.32545009859727
 20
1.66981839530436
 10
8.322740863423672
 20
1.66033607219676
 10
8.32003162825007
 20
1.650853749089159
 10
8.31461315790287
 20
1.642726043568359
 10
8.310549305142471
 20
1.634598338047559
 10
8.30377621720847
 20
1.629179867700358
 10
8.298357746861269
 20
1.622406779766357
 10
8.290230041340468
 20
1.618342927005957
 10
8.282102335819669
 20
1.612924456658757
 10
8.27262001271207
 20
1.610215221485157
 10
8.263137689604468
 20
1.607505986311557
 10
8.252300748910068
 20
1.606151368724757
 10
8.240109190628864
 20
1.604796751137956
 10
8.227917632347665
 20
1.603442133551157
 10
8.227917632347665
 20
1.603442133551157
 10
8.227917632347665
 20
1.603442133551157
 10
8.227917632347665
 20
1.603442133551157
  0
LWPOLYLINE
  5
3D62
330
3D59
100
AcDbEntity
  8
TBTEXT
100
AcDbPolyline
 90
       58
 70
     0
 43
0.0054184703472003
 10
8.444656446235676
 20
1.610215221485157
 10
8.359315538267273
 20
1.610215221485157
 10
8.359315538267273
 20
1.610215221485157
 10
8.364734008614473
 20
1.612924456658757
 10
8.367443243788072
 20
1.615633691832358
 10
8.370152478961673
 20
1.621052162179558
 10
8.372861714135272
 20
1.625116014939957
 10
8.375570949308875
 20
1.637307573221158
 10
8.376925566895673
 20
1.65356298426276
 10
8.376925566895673
 20
1.817471712265569
 10
8.376925566895673
 20
1.817471712265569
 10
8.375570949308875
 20
1.832372505720369
 10
8.372861714135272
 20
1.84456406400157
 10
8.370152478961673
 20
1.84862791676197
 10
8.367443243788072
 20
1.85269176952237
 10
8.363379391027673
 20
1.856755622282771
 10
8.359315538267273
 20
1.85946485745637
 10
8.47987650349248
 20
1.85946485745637
 10
8.47987650349248
 20
1.85946485745637
 10
8.502905002468081
 20
1.858110239869571
 10
8.52186964868328
 20
1.855401004695971
 10
8.529997354204083
 20
1.85269176952237
 10
8.538125059724884
 20
1.849982534348771
 10
8.544898147658884
 20
1.84591868158837
 10
8.550316618006084
 20
1.84185482882797
 10
8.555735088353284
 20
1.83643635848077
 10
8.561153558700484
 20
1.83101788813357
 10
8.565217411460884
 20
1.824244800199569
 10
8.567926646634485
 20
1.816117094678769
 10
8.570635881808085
 20
1.807989389157968
 10
8.573345116981686
 20
1.799861683637168
 10
8.574699734568483
 20
1.779542419835166
 10
8.574699734568483
 20
1.779542419835166
 10
8.573345116981686
 20
1.761932391206765
 10
8.570635881808085
 20
1.753804685685965
 10
8.567926646634485
 20
1.745676980165165
 10
8.565217411460884
 20
1.737549274644364
 10
8.561153558700484
 20
1.732130804297164
 10
8.555735088353284
 20
1.725357716363164
 10
8.550316618006084
 20
1.719939246015964
 10
8.544898147658884
 20
1.714520775668763
 10
8.538125059724884
 20
1.710456922908362
 10
8.529997354204083
 20
1.706393070147963
 10
8.52186964868328
 20
1.703683834974362
 10
8.504259620054881
 20
1.699619982213962
 10
8.48258573866608
 20
1.698265364627162
 10
8.427046417607277
 20
1.698265364627162
 10
8.427046417607277
 20
1.65356298426276
 10
8.427046417607277
 20
1.65356298426276
 10
8.428401035194076
 20
1.637307573221158
 10
8.431110270367677
 20
1.625116014939957
 10
8.433819505541276
 20
1.619697544592757
 10
8.436528740714877
 20
1.615633691832358
 10
8.440592593475278
 20
1.612924456658757
 10
8.444656446235676
 20
1.610215221485157
 10
8.444656446235676
 20
1.610215221485157
 10
8.444656446235676
 20
1.610215221485157
 10
8.444656446235676
 20
1.610215221485157
  0
HATCH
  5
3D63
330
3D59
100
AcDbEntity
  8
TBTEXT
100
AcDbHatch
 10
0.0
 20
0.0
 30
0.0
210
0.0
220
0.0
230
1.0
  2
ANSI31
 70
     0
 71
     1
 91
        1
 92
        7
 72
     0
 73
     1
 93
       83
 10
7.992214172244413
 20
1.768705479140772
 10
7.964888265752101
 20
1.77599238753873
 10
7.956542575792051
 20
1.782251655008768
 10
7.95338180142285
 20
1.801216301223963
 10
7.960380658954651
 20
1.811714587521668
 10
7.973926834822654
 20
1.81848767545567
 10
7.984086466723654
 20
1.820180947439168
 10
8.009824200872847
 20
1.820180947439169
 10
8.026079611914454
 20
1.816117094678769
 10
8.044502411094935
 20
1.811511394883645
 10
8.055881198824054
 20
1.806634771571165
 10
8.064008904344856
 20
1.801216301223967
 10
8.072136609865659
 20
1.795797830876765
 10
8.083679187858126
 20
1.856075738170766
 10
8.061299669171246
 20
1.858110239869571
 10
8.043689640542834
 20
1.860819475043168
 10
8.020661141567246
 20
1.86352871021677
 10
7.994923407418047
 20
1.864883327803571
 10
7.973249526029244
 20
1.86352871021677
 10
7.96376720292166
 20
1.862174092629974
 10
7.95563949740085
 20
1.85946485745637
 10
7.947511791880053
 20
1.856755622282771
 10
7.939384086359247
 20
1.852691769522369
 10
7.932610998425245
 20
1.847273299175166
 10
7.925837910491248
 20
1.843209446414771
 10
7.920419440144046
 20
1.837790976067571
 10
7.915000969796849
 20
1.831017888133571
 10
7.910937117036445
 20
1.824244800199563
 10
7.905518646689237
 20
1.810698624331557
 10
7.902809411515651
 20
1.802570918810773
 10
7.901454793928847
 20
1.794443213289969
 10
7.901454793928847
 20
1.786315507769167
 10
7.902809411515647
 20
1.772769331901154
 10
7.905518646689246
 20
1.760577773619966
 10
7.912291734623256
 20
1.749740832925556
 10
7.920419440144039
 20
1.740258509817962
 10
7.931256380838442
 20
1.732130804297166
 10
7.943447939119632
 20
1.726712333949955
 10
7.95834873257446
 20
1.721293863602761
 10
7.975958761202862
 20
1.717230010842359
 10
8.007114965699248
 20
1.712779124485734
 10
8.028517923570696
 20
1.706663993665322
 10
8.038948478989054
 20
1.696233438246959
 10
8.042172468845639
 20
1.673665509250873
 10
8.030595003870454
 20
1.65822888928396
 10
8.020661141567254
 20
1.654917601849559
 10
8.012533436046457
 20
1.65220836667596
 10
8.001696495352014
 20
1.650853749089159
 10
7.983767733173825
 20
1.648861664402688
 10
7.967831055682056
 20
1.65085374908916
 10
7.956994114987651
 20
1.65356298426276
 10
7.946157174293258
 20
1.656272219436355
 10
7.923128675317641
 20
1.66575454254395
 10
7.900100176342048
 20
1.677946100825161
 10
7.912291734623247
 20
1.607505986311558
 10
7.92312867531765
 20
1.610215221485157
 10
7.933965616012089
 20
1.608860603898354
 10
7.950221027053625
 20
1.607505986311561
 10
7.967831055682053
 20
1.604796751137958
 10
7.989504937070856
 20
1.603442133551156
 10
8.013888053633256
 20
1.604796751137958
 10
8.024724994327652
 20
1.607505986311557
 10
8.035561935022066
 20
1.610215221485155
 10
8.045044258129655
 20
1.612924456658757
 10
8.053171963650456
 20
1.616988309419157
 10
8.061299669171262
 20
1.621052162179561
 10
8.068072757105258
 20
1.626470632526758
 10
8.074845845039256
 20
1.631889102873958
 10
8.080264315386456
 20
1.638662190807959
 10
8.08432816814686
 20
1.645435278741957
 10
8.088392020907259
 20
1.653562984262766
 10
8.091101256080856
 20
1.66169068978356
 10
8.093810491254459
 20
1.669818395304361
 10
8.093810491254459
 20
1.67930071841197
 10
8.09516510884126
 20
1.688783041519561
 10
8.093810491254459
 20
1.703683834974345
 10
8.089746638494058
 20
1.717230010842367
 10
8.084328168146858
 20
1.729421569123567
 10
8.07620046262606
 20
1.738903892231157
 10
8.066718139518459
 20
1.747031597751962
 10
8.053171963650467
 20
1.75380468568597
 10
8.038271170195644
 20
1.759223156033164
 10
8.022015759154055
 20
1.763287008793559
 97
        1
330
3D60
 75
     0
 76
     1
 52
0.0
 41
0.1
 77
     0
 78
     1
 53
45.0
 43
0.0
 44
0.0000000000000009
 45
-0.0088388347648318
 46
0.0088388347648318
 79
     0
 47
0.0054714440850857
 98
        1
 10
8.00936918501046
 20
1.746534184106672
  0
LWPOLYLINE
  5
3D64
330
3D59
100
AcDbEntity
  8
TBTEXT
100
AcDbPolyline
 90
       66
 70
     0
 43
0.0054184703472003
 10
8.600437468717686
 20
1.652208366675959
 10
8.600437468717686
 20
1.816117094678769
 10
8.600437468717686
 20
1.816117094678769
 10
8.599082851130886
 20
1.832372505720369
 10
8.596373615957287
 20
1.84456406400157
 10
8.593664380783686
 20
1.84862791676197
 10
8.590955145610087
 20
1.85269176952237
 10
8.586891292849685
 20
1.856755622282771
 10
8.582827440089286
 20
1.85946485745637
 10
8.796857018803697
 20
1.85946485745637
 10
8.796857018803697
 20
1.85946485745637
 10
8.795502401216899
 20
1.85404638710917
 10
8.794147783630097
 20
1.849982534348771
 10
8.794147783630097
 20
1.849982534348771
 10
8.798211636390498
 20
1.832372505720369
 10
8.806339341911299
 20
1.795797830876767
 10
8.806339341911299
 20
1.795797830876767
 10
8.798211636390498
 20
1.801216301223967
 10
8.788729313282898
 20
1.805280153984368
 10
8.780601607762097
 20
1.809344006744768
 10
8.771119284654496
 20
1.812053241918368
 10
8.752154638439295
 20
1.816117094678769
 10
8.731835374637294
 20
1.816117094678769
 10
8.650558319429289
 20
1.816117094678769
 10
8.650558319429289
 20
1.757868538446365
 10
8.739963080158095
 20
1.757868538446365
 10
8.739963080158095
 20
1.757868538446365
 10
8.749445403265694
 20
1.759223156033166
 10
8.756218491199695
 20
1.760577773619965
 10
8.768410049480895
 20
1.764641626380366
 10
8.750800020852495
 20
1.729421569123563
 10
8.750800020852495
 20
1.729421569123563
 10
8.746736168092095
 20
1.724003098776363
 10
8.741317697744895
 20
1.718584628429163
 10
8.735899227397693
 20
1.715875393255562
 10
8.729126139463691
 20
1.715875393255562
 10
8.650558319429289
 20
1.715875393255562
 10
8.650558319429289
 20
1.652208366675959
 10
8.735899227397693
 20
1.652208366675959
 10
8.735899227397693
 20
1.652208366675959
 10
8.748090785678896
 20
1.65356298426276
 10
8.760282343960096
 20
1.654917601849559
 10
8.771119284654496
 20
1.65627221943636
 10
8.781956225348898
 20
1.66033607219676
 10
8.791438548456497
 20
1.66439992495716
 10
8.800920871564095
 20
1.66981839530436
 10
8.809048577084898
 20
1.675236865651561
 10
8.815821665018898
 20
1.682009953585561
 10
8.815821665018898
 20
1.682009953585561
 10
8.802275489150897
 20
1.640016808394759
 10
8.798211636390498
 20
1.627825250113558
 10
8.796857018803697
 20
1.621052162179558
 10
8.796857018803697
 20
1.621052162179558
 10
8.798211636390498
 20
1.615633691832358
 10
8.800920871564095
 20
1.610215221485157
 10
8.582827440089286
 20
1.610215221485157
 10
8.582827440089286
 20
1.610215221485157
 10
8.586891292849685
 20
1.612924456658757
 10
8.590955145610087
 20
1.615633691832358
 10
8.593664380783686
 20
1.619697544592757
 10
8.596373615957287
 20
1.625116014939957
 10
8.599082851130886
 20
1.637307573221158
 10
8.600437468717686
 20
1.652208366675959
 10
8.600437468717686
 20
1.652208366675959
 10
8.600437468717686
 20
1.652208366675959
 10
8.600437468717686
 20
1.652208366675959
  0
LWPOLYLINE
  5
3D65
330
3D59
100
AcDbEntity
  8
TBTEXT
100
AcDbPolyline
 90
       24
 70
     0
 43
0.0054184703472003
 10
8.47716726831888
 20
1.740258509817964
 10
8.47716726831888
 20
1.740258509817964
 10
8.488004209013281
 20
1.741613127404764
 10
8.49613191453408
 20
1.742967744991564
 10
8.504259620054881
 20
1.745676980165165
 10
8.509678090402081
 20
1.749740832925565
 10
8.515096560749281
 20
1.755159303272765
 10
8.517805795922882
 20
1.761932391206765
 10
8.520515031096481
 20
1.770060096727566
 10
8.520515031096481
 20
1.779542419835166
 10
8.520515031096481
 20
1.779542419835166
 10
8.520515031096481
 20
1.789024742942767
 10
8.517805795922882
 20
1.795797830876767
 10
8.515096560749281
 20
1.802570918810768
 10
8.509678090402081
 20
1.807989389157968
 10
8.502905002468081
 20
1.812053241918368
 10
8.49613191453408
 20
1.814762477091968
 10
8.48664959142648
 20
1.816117094678769
 10
8.47445803314528
 20
1.816117094678769
 10
8.427046417607277
 20
1.816117094678769
 10
8.427046417607277
 20
1.740258509817964
 10
8.47716726831888
 20
1.740258509817964
 10
8.47716726831888
 20
1.740258509817964
 10
8.47716726831888
 20
1.740258509817964
  0
LWPOLYLINE
  5
3D66
330
3D59
100
AcDbEntity
  8
TBTEXT
100
AcDbPolyline
 90
       24
 70
     0
 43
0.0054184703472003
 10
8.947219570938506
 20
1.747031597751965
 10
8.947219570938506
 20
1.747031597751965
 10
8.958056511632906
 20
1.748386215338764
 10
8.968893452327308
 20
1.749740832925565
 10
8.975666540261308
 20
1.751095450512365
 10
8.982439628195309
 20
1.755159303272765
 10
8.987858098542509
 20
1.759223156033166
 10
8.99056733371611
 20
1.765996243967166
 10
8.993276568889708
 20
1.772769331901166
 10
8.993276568889708
 20
1.782251655008766
 10
8.993276568889708
 20
1.782251655008766
 10
8.993276568889708
 20
1.791733978116368
 10
8.99056733371611
 20
1.798507066050368
 10
8.987858098542509
 20
1.805280153984368
 10
8.982439628195309
 20
1.809344006744768
 10
8.975666540261308
 20
1.813407859505168
 10
8.968893452327308
 20
1.814762477091968
 10
8.958056511632906
 20
1.816117094678769
 10
8.947219570938506
 20
1.816117094678769
 10
8.893034867466502
 20
1.816117094678769
 10
8.893034867466502
 20
1.747031597751965
 10
8.947219570938506
 20
1.747031597751965
 10
8.947219570938506
 20
1.747031597751965
 10
8.947219570938506
 20
1.747031597751965
  0
LWPOLYLINE
  5
3D67
330
3D59
100
AcDbEntity
  8
TBTEXT
100
AcDbPolyline
 90
      121
 70
     0
 43
0.0054184703472003
 10
9.696323096438947
 20
1.649499131502359
 10
9.696323096438947
 20
1.649499131502359
 10
9.707160037133349
 20
1.650853749089159
 10
9.717996977827749
 20
1.652208366675959
 10
9.72747930093535
 20
1.654917601849559
 10
9.73425238886935
 20
1.657626837023159
 10
9.73967085921655
 20
1.66304530737036
 10
9.74373471197695
 20
1.66846377771756
 10
9.746443947150551
 20
1.675236865651561
 10
9.747798564737352
 20
1.682009953585561
 10
9.747798564737352
 20
1.682009953585561
 10
9.746443947150551
 20
1.691492276693161
 10
9.742380094390152
 20
1.698265364627162
 10
9.73696162404295
 20
1.703683834974362
 10
9.73018853610895
 20
1.707747687734762
 10
9.72070621300135
 20
1.710456922908362
 10
9.709869272306946
 20
1.713166158081963
 10
9.682776920570946
 20
1.717230010842363
 10
9.682776920570946
 20
1.717230010842363
 10
9.665166891942546
 20
1.721293863602763
 10
9.650266098487746
 20
1.726712333949964
 10
9.636719922619745
 20
1.732130804297164
 10
9.625882981925344
 20
1.740258509817964
 10
9.617755276404543
 20
1.749740832925565
 10
9.612336806057343
 20
1.760577773619965
 10
9.608272953296943
 20
1.772769331901166
 10
9.606918335710143
 20
1.786315507769167
 10
9.606918335710143
 20
1.786315507769167
 10
9.608272953296943
 20
1.794443213289967
 10
9.609627570883744
 20
1.802570918810768
 10
9.610982188470542
 20
1.810698624331569
 10
9.613691423644143
 20
1.817471712265569
 10
9.617755276404543
 20
1.824244800199569
 10
9.621819129164942
 20
1.83101788813357
 10
9.625882981925344
 20
1.83779097606757
 10
9.632656069859342
 20
1.84320944641477
 10
9.638074540206542
 20
1.84727329917517
 10
9.644847628140544
 20
1.85269176952237
 10
9.652975333661345
 20
1.856755622282771
 10
9.661103039182146
 20
1.85946485745637
 10
9.670585362289748
 20
1.862174092629971
 10
9.680067685397347
 20
1.863528710216772
 10
9.700386949199348
 20
1.864883327803571
 10
9.700386949199348
 20
1.864883327803571
 10
9.72612468334855
 20
1.863528710216772
 10
9.74915318232415
 20
1.860819475043171
 10
9.768117828539351
 20
1.858110239869571
 10
9.78166400440735
 20
1.856755622282771
 10
9.78166400440735
 20
1.856755622282771
 10
9.785727857167753
 20
1.858110239869571
 10
9.789791709928153
 20
1.85946485745637
 10
9.777600151646952
 20
1.795797830876767
 10
9.777600151646952
 20
1.795797830876767
 10
9.769472446126152
 20
1.801216301223967
 10
9.76134474060535
 20
1.806634771571168
 10
9.751862417497751
 20
1.810698624331569
 10
9.742380094390152
 20
1.813407859505168
 10
9.73289777128255
 20
1.816117094678769
 10
9.72206083058815
 20
1.818826329852369
 10
9.709869272306946
 20
1.820180947439168
 10
9.699032331612546
 20
1.820180947439168
 10
9.699032331612546
 20
1.820180947439168
 10
9.689550008504947
 20
1.820180947439168
 10
9.682776920570946
 20
1.818826329852369
 10
9.676003832636946
 20
1.816117094678769
 10
9.670585362289748
 20
1.813407859505168
 10
9.666521509529346
 20
1.810698624331569
 10
9.662457656768947
 20
1.806634771571168
 10
9.661103039182146
 20
1.801216301223967
 10
9.661103039182146
 20
1.795797830876767
 10
9.661103039182146
 20
1.795797830876767
 10
9.661103039182146
 20
1.787670125355966
 10
9.665166891942546
 20
1.780897037421966
 10
9.670585362289748
 20
1.776833184661566
 10
9.677358450223746
 20
1.774123949487966
 10
9.699032331612546
 20
1.768705479140765
 10
9.72747930093535
 20
1.763287008793565
 10
9.72747930093535
 20
1.763287008793565
 10
9.74508932956375
 20
1.759223156033166
 10
9.75999012301855
 20
1.753804685685965
 10
9.772181681299752
 20
1.747031597751965
 10
9.783018621994152
 20
1.738903892231165
 10
9.791146327514953
 20
1.729421569123563
 10
9.796564797862153
 20
1.717230010842363
 10
9.799274033035754
 20
1.703683834974362
 10
9.800628650622555
 20
1.688783041519561
 10
9.800628650622555
 20
1.688783041519561
 10
9.800628650622555
 20
1.679300718411961
 10
9.799274033035754
 20
1.66981839530436
 10
9.796564797862153
 20
1.66169068978356
 10
9.793855562688554
 20
1.65356298426276
 10
9.789791709928153
 20
1.645435278741959
 10
9.785727857167753
 20
1.638662190807958
 10
9.780309386820553
 20
1.631889102873958
 10
9.773536298886553
 20
1.626470632526758
 10
9.766763210952552
 20
1.621052162179558
 10
9.758635505431752
 20
1.616988309419157
 10
9.75050779991095
 20
1.612924456658757
 10
9.741025476803351
 20
1.610215221485157
 10
9.73154315369575
 20
1.607505986311557
 10
9.72070621300135
 20
1.604796751137956
 10
9.696323096438947
 20
1.603442133551157
 10
9.696323096438947
 20
1.603442133551157
 10
9.674649215050147
 20
1.604796751137956
 10
9.655684568834946
 20
1.607505986311557
 10
9.640783775380145
 20
1.608860603898357
 10
9.628592217098944
 20
1.610215221485157
 10
9.628592217098944
 20
1.610215221485157
 10
9.624528364338543
 20
1.608860603898357
 10
9.619109893991343
 20
1.607505986311557
 10
9.605563718123342
 20
1.677946100825161
 10
9.605563718123342
 20
1.677946100825161
 10
9.628592217098944
 20
1.66575454254396
 10
9.651620716074545
 20
1.65627221943636
 10
9.662457656768947
 20
1.65356298426276
 10
9.673294597463347
 20
1.650853749089159
 10
9.684131538157748
 20
1.649499131502359
 10
9.696323096438947
 20
1.649499131502359
 10
9.696323096438947
 20
1.649499131502359
 10
9.696323096438947
 20
1.649499131502359
 10
9.696323096438947
 20
1.649499131502359
  0
LWPOLYLINE
  5
3D68
330
3D59
100
AcDbEntity
  8
TBTEXT
100
AcDbPolyline
 90
       66
 70
     0
 43
0.0054184703472003
 10
9.833139472705755
 20
1.652208366675959
 10
9.833139472705755
 20
1.816117094678769
 10
9.833139472705755
 20
1.816117094678769
 10
9.831784855118954
 20
1.832372505720369
 10
9.829075619945355
 20
1.84456406400157
 10
9.826366384771754
 20
1.84862791676197
 10
9.823657149598155
 20
1.85269176952237
 10
9.819593296837756
 20
1.856755622282771
 10
9.815529444077354
 20
1.85946485745637
 10
10.03091364037856
 20
1.85946485745637
 10
10.03091364037856
 20
1.85946485745637
 10
10.02820440520497
 20
1.85404638710917
 10
10.02684978761816
 20
1.849982534348771
 10
10.02684978761816
 20
1.849982534348771
 10
10.03091364037856
 20
1.832372505720369
 10
10.04039596348617
 20
1.795797830876767
 10
10.04039596348617
 20
1.795797830876767
 10
10.03091364037856
 20
1.801216301223967
 10
10.02278593485776
 20
1.805280153984368
 10
10.01330361175016
 20
1.809344006744768
 10
10.00382128864256
 20
1.812053241918368
 10
9.984856642427363
 20
1.816117094678769
 10
9.964537378625362
 20
1.816117094678769
 10
9.883260323417359
 20
1.816117094678769
 10
9.883260323417359
 20
1.757868538446365
 10
9.974019701732963
 20
1.757868538446365
 10
9.974019701732963
 20
1.757868538446365
 10
9.982147407253764
 20
1.759223156033166
 10
9.988920495187765
 20
1.760577773619965
 10
10.00111205346896
 20
1.764641626380366
 10
9.983502024840563
 20
1.729421569123563
 10
9.983502024840563
 20
1.729421569123563
 10
9.979438172080163
 20
1.724003098776363
 10
9.975374319319762
 20
1.718584628429163
 10
9.968601231385763
 20
1.715875393255562
 10
9.961828143451763
 20
1.715875393255562
 10
9.883260323417359
 20
1.715875393255562
 10
9.883260323417359
 20
1.652208366675959
 10
9.968601231385763
 20
1.652208366675959
 10
9.968601231385763
 20
1.652208366675959
 10
9.982147407253764
 20
1.65356298426276
 10
9.992984347948164
 20
1.654917601849559
 10
10.00517590622936
 20
1.65627221943636
 10
10.01465822933696
 20
1.66033607219676
 10
10.02414055244456
 20
1.66439992495716
 10
10.03362287555217
 20
1.66981839530436
 10
10.04175058107297
 20
1.675236865651561
 10
10.04852366900697
 20
1.682009953585561
 10
10.04852366900697
 20
1.682009953585561
 10
10.03497749313897
 20
1.640016808394759
 10
10.03091364037856
 20
1.627825250113558
 10
10.02955902279176
 20
1.621052162179558
 10
10.02955902279176
 20
1.621052162179558
 10
10.03091364037856
 20
1.615633691832358
 10
10.03362287555217
 20
1.610215221485157
 10
9.815529444077354
 20
1.610215221485157
 10
9.815529444077354
 20
1.610215221485157
 10
9.819593296837756
 20
1.612924456658757
 10
9.823657149598155
 20
1.615633691832358
 10
9.826366384771754
 20
1.619697544592757
 10
9.829075619945355
 20
1.625116014939957
 10
9.831784855118954
 20
1.637307573221158
 10
9.833139472705755
 20
1.652208366675959
 10
9.833139472705755
 20
1.652208366675959
 10
9.833139472705755
 20
1.652208366675959
 10
9.833139472705755
 20
1.652208366675959
  0
LWPOLYLINE
  5
3D69
330
3D59
100
AcDbEntity
  8
TBTEXT
100
AcDbPolyline
 90
       48
 70
     0
 43
0.0054184703472003
 10
10.31538333360658
 20
1.610215221485157
 10
10.23681551357218
 20
1.610215221485157
 10
10.23681551357218
 20
1.610215221485157
 10
10.24087936633258
 20
1.614279074245557
 10
10.24358860150618
 20
1.619697544592757
 10
10.24494321909298
 20
1.625116014939957
 10
10.24494321909298
 20
1.630534485287157
 10
10.24494321909298
 20
1.630534485287157
 10
10.24358860150618
 20
1.638662190807958
 10
10.24223398391938
 20
1.645435278741959
 10
10.23681551357218
 20
1.66169068978356
 10
10.11896378352057
 20
1.66169068978356
 10
10.11354531317337
 20
1.649499131502359
 10
10.11354531317337
 20
1.649499131502359
 10
10.11219069558657
 20
1.641371425981559
 10
10.11219069558657
 20
1.633243720460758
 10
10.11219069558657
 20
1.633243720460758
 10
10.11219069558657
 20
1.626470632526758
 10
10.11354531317337
 20
1.619697544592757
 10
10.11625454834697
 20
1.614279074245557
 10
10.11896378352057
 20
1.610215221485157
 10
10.04039596348617
 20
1.610215221485157
 10
10.04039596348617
 20
1.610215221485157
 10
10.04852366900697
 20
1.619697544592757
 10
10.05394213935417
 20
1.630534485287157
 10
10.06477908004857
 20
1.654917601849559
 10
10.13792842973577
 20
1.83914559365437
 10
10.13792842973577
 20
1.83914559365437
 10
10.13928304732257
 20
1.84591868158837
 10
10.14063766490937
 20
1.849982534348771
 10
10.14063766490937
 20
1.849982534348771
 10
10.13792842973577
 20
1.85946485745637
 10
10.22326933770417
 20
1.85946485745637
 10
10.22326933770417
 20
1.85946485745637
 10
10.22191472011737
 20
1.85404638710917
 10
10.22056010253058
 20
1.849982534348771
 10
10.22056010253058
 20
1.849982534348771
 10
10.22056010253058
 20
1.84591868158837
 10
10.22326933770417
 20
1.83914559365437
 10
10.29100021704418
 20
1.654917601849559
 10
10.29100021704418
 20
1.654917601849559
 10
10.29641868739138
 20
1.641371425981559
 10
10.30183715773858
 20
1.630534485287157
 10
10.30861024567258
 20
1.619697544592757
 10
10.31538333360658
 20
1.610215221485157
 10
10.31538333360658
 20
1.610215221485157
 10
10.31538333360658
 20
1.610215221485157
 10
10.31538333360658
 20
1.610215221485157
  0
LWPOLYLINE
  5
3D6A
330
3D59
100
AcDbEntity
  8
TBTEXT
100
AcDbPolyline
 90
        4
 70
     0
 43
0.0054184703472003
 10
9.464683489096135
 20
1.537065871797953
 10
10.56192373440419
 20
1.537065871797953
 10
10.56192373440419
 20
1.932614207143575
 10
9.488050642468435
 20
1.932614207143575
  0
LWPOLYLINE
  5
3D6B
330
3D59
100
AcDbEntity
  8
TBTEXT
100
AcDbPolyline
 90
       46
 70
     0
 43
0.0054184703472003
 10
10.31673795119338
 20
1.85946485745637
 10
10.40207885916179
 20
1.85946485745637
 10
10.40207885916179
 20
1.85946485745637
 10
10.39801500640138
 20
1.856755622282771
 10
10.39395115364099
 20
1.85269176952237
 10
10.39124191846738
 20
1.84862791676197
 10
10.38853268329378
 20
1.84320944641477
 10
10.38582344812018
 20
1.83101788813357
 10
10.38446883053338
 20
1.816117094678769
 10
10.38446883053338
 20
1.652208366675959
 10
10.44271738676579
 20
1.652208366675959
 10
10.44271738676579
 20
1.652208366675959
 10
10.45490894504699
 20
1.65356298426276
 10
10.46574588574139
 20
1.65356298426276
 10
10.47658282643579
 20
1.65627221943636
 10
10.48606514954339
 20
1.65898145460996
 10
10.49554747265099
 20
1.66304530737036
 10
10.50502979575859
 20
1.66846377771756
 10
10.51451211886619
 20
1.675236865651561
 10
10.52263982438699
 20
1.682009953585561
 10
10.52263982438699
 20
1.682009953585561
 10
10.50909364851899
 20
1.640016808394759
 10
10.50502979575859
 20
1.627825250113558
 10
10.50232056058499
 20
1.621052162179558
 10
10.50232056058499
 20
1.621052162179558
 10
10.50367517817179
 20
1.615633691832358
 10
10.50638441334539
 20
1.610215221485157
 10
10.31673795119338
 20
1.610215221485157
 10
10.31673795119338
 20
1.610215221485157
 10
10.32080180395378
 20
1.612924456658757
 10
10.32486565671418
 20
1.615633691832358
 10
10.32757489188778
 20
1.621052162179558
 10
10.33028412706138
 20
1.625116014939957
 10
10.33299336223498
 20
1.637307573221158
 10
10.33434797982178
 20
1.652208366675959
 10
10.33434797982178
 20
1.816117094678769
 10
10.33434797982178
 20
1.816117094678769
 10
10.33299336223498
 20
1.832372505720369
 10
10.33028412706138
 20
1.84456406400157
 10
10.32757489188778
 20
1.84862791676197
 10
10.32486565671418
 20
1.85269176952237
 10
10.32080180395378
 20
1.856755622282771
 10
10.31673795119338
 20
1.85946485745637
 10
10.31673795119338
 20
1.85946485745637
 10
10.31673795119338
 20
1.85946485745637
 10
10.31673795119338
 20
1.85946485745637
  0
LWPOLYLINE
  5
3D6C
330
3D59
100
AcDbEntity
  8
TBTEXT
100
AcDbPolyline
 90
      208
 70
     0
 43
0.0027092351736002
 10
9.36173255249933
 20
1.966479646813577
 10
9.364441787672927
 20
1.962415794053177
 10
9.36850564043333
 20
1.959706558879577
 10
9.37392411078053
 20
1.958351941292776
 10
9.376633345954131
 20
1.955642706119176
 10
9.382051816301331
 20
1.952933470945576
 10
9.387470286648531
 20
1.950224235771976
 10
9.39153413940893
 20
1.944805765424775
 10
9.39559799216933
 20
1.939387295077575
 10
9.401016462516532
 20
1.935323442317176
 10
9.406434932863732
 20
1.932614207143575
 10
9.411853403210932
 20
1.931259589556774
 10
9.414562638384531
 20
1.931259589556774
 10
9.413208020797732
 20
1.936678059903975
 10
9.417271873558132
 20
1.936678059903975
 10
9.418626491144932
 20
1.933968824730375
 10
9.421335726318533
 20
1.929904971969975
 10
9.426754196665733
 20
1.927195736796375
 10
9.430818049426133
 20
1.924486501622775
 10
9.433527284599734
 20
1.925841119209574
 10
9.425399579078933
 20
1.931259589556774
 10
9.421335726318533
 20
1.933968824730375
 10
9.428108814252534
 20
1.932614207143575
 10
9.430818049426133
 20
1.933968824730375
 10
9.426754196665733
 20
1.938032677490775
 10
9.417271873558132
 20
1.944805765424775
 10
9.410498785624132
 20
1.948869618185177
 10
9.39153413940893
 20
1.956997323705977
 10
9.387470286648531
 20
1.958351941292776
 10
9.38882490423533
 20
1.961061176466377
 10
9.39153413940893
 20
1.961061176466377
 10
9.394243374582532
 20
1.958351941292776
 10
9.396952609756132
 20
1.955642706119176
 10
9.403725697690131
 20
1.954288088532377
 10
9.410498785624132
 20
1.951578853358776
 10
9.413208020797732
 20
1.951578853358776
 10
9.413208020797732
 20
1.955642706119176
 10
9.411853403210932
 20
1.958351941292776
 10
9.417271873558132
 20
1.952933470945576
 10
9.421335726318533
 20
1.950224235771976
 10
9.424044961492132
 20
1.951578853358776
 10
9.425399579078933
 20
1.947515000598376
 10
9.426754196665733
 20
1.944805765424775
 10
9.432172667012933
 20
1.943451147837976
 10
9.436236519773333
 20
1.939387295077575
 10
9.438945754946934
 20
1.933968824730375
 10
9.437591137360133
 20
1.928550354383175
 10
9.434881902186534
 20
1.927195736796375
 10
9.433527284599734
 20
1.919068031275574
 10
9.434881902186534
 20
1.915004178515174
 10
9.437591137360133
 20
1.912294943341573
 10
9.440300372533734
 20
1.910940325754774
 10
9.444364225294134
 20
1.908231090581174
 10
9.444364225294134
 20
1.901458002647173
 10
9.444364225294134
 20
1.897394149886773
 10
9.445718842880934
 20
1.893330297126373
 10
9.444364225294134
 20
1.890621061952773
 10
9.441654990120535
 20
1.887911826779173
 10
9.443009607707333
 20
1.886557209192372
 10
9.452491930814935
 20
1.885202591605573
 10
9.456555783575334
 20
1.885202591605573
 10
9.459265018748935
 20
1.882493356431973
 10
9.460619636335736
 20
1.879784121258372
 10
9.463328871509335
 20
1.877074886084773
 10
9.464683489096135
 20
1.874365650911172
 10
9.461974253922534
 20
1.868947180563972
 10
9.460619636335736
 20
1.866237945390371
 10
9.456555783575334
 20
1.866237945390371
 10
9.456555783575334
 20
1.860819475043171
 10
9.457910401162135
 20
1.855401004695971
 10
9.460619636335736
 20
1.855401004695971
 10
9.461974253922534
 20
1.85133715193557
 10
9.468747341856536
 20
1.84591868158837
 10
9.474165812203735
 20
1.84320944641477
 10
9.478229664964134
 20
1.84185482882797
 10
9.482293517724536
 20
1.84320944641477
 10
9.486357370484937
 20
1.84591868158837
 10
9.487711988071736
 20
1.85133715193557
 10
9.486357370484937
 20
1.856755622282771
 10
9.487711988071736
 20
1.858110239869571
 10
9.483648135311334
 20
1.862174092629971
 10
9.479584282550936
 20
1.866237945390371
 10
9.478229664964134
 20
1.874365650911172
 10
9.476875047377336
 20
1.881138738845172
 10
9.474165812203735
 20
1.882493356431973
 10
9.475520429790535
 20
1.886557209192372
 10
9.476875047377336
 20
1.889266444365973
 10
9.475520429790535
 20
1.894684914713173
 10
9.476875047377336
 20
1.896039532299973
 10
9.479584282550936
 20
1.893330297126373
 10
9.482293517724536
 20
1.890621061952773
 10
9.487711988071736
 20
1.885202591605573
 10
9.490421223245336
 20
1.883847974018772
 10
9.489066605658534
 20
1.886557209192372
 10
9.483648135311334
 20
1.891975679539572
 10
9.483648135311334
 20
1.894684914713173
 10
9.491775840832137
 20
1.894684914713173
 10
9.494485076005734
 20
1.894684914713173
 10
9.495839693592536
 20
1.893330297126373
 10
9.498548928766137
 20
1.890621061952773
 10
9.499903546352938
 20
1.889266444365973
 10
9.501258163939736
 20
1.885202591605573
 10
9.502612781526537
 20
1.886557209192372
 10
9.499903546352938
 20
1.891975679539572
 10
9.497194311179337
 20
1.896039532299973
 10
9.494485076005734
 20
1.898748767473573
 10
9.493130458418937
 20
1.901458002647173
 10
9.489066605658534
 20
1.901458002647173
 10
9.480938900137735
 20
1.901458002647173
 10
9.475520429790535
 20
1.904167237820773
 10
9.474165812203735
 20
1.908231090581174
 10
9.480938900137735
 20
1.908231090581174
 10
9.483648135311334
 20
1.906876472994373
 10
9.487711988071736
 20
1.908231090581174
 10
9.491775840832137
 20
1.906876472994373
 10
9.495839693592536
 20
1.904167237820773
 10
9.498548928766137
 20
1.901458002647173
 10
9.503967399113337
 20
1.900103385060373
 10
9.503967399113337
 20
1.901458002647173
 10
9.497194311179337
 20
1.906876472994373
 10
9.494485076005734
 20
1.910940325754774
 10
9.491775840832137
 20
1.915004178515174
 10
9.490421223245336
 20
1.917713413688774
 10
9.486357370484937
 20
1.921777266449175
 10
9.482293517724536
 20
1.927195736796375
 10
9.475520429790535
 20
1.931259589556774
 10
9.471456577030136
 20
1.935323442317176
 10
9.472811194616934
 20
1.938032677490775
 10
9.468747341856536
 20
1.942096530251176
 10
9.464683489096135
 20
1.946160383011576
 10
9.472811194616934
 20
1.943451147837976
 10
9.474165812203735
 20
1.940741912664376
 10
9.476875047377336
 20
1.938032677490775
 10
9.479584282550936
 20
1.933968824730375
 10
9.483648135311334
 20
1.928550354383175
 10
9.487711988071736
 20
1.925841119209574
 10
9.490421223245336
 20
1.920422648862374
 10
9.493130458418937
 20
1.916358796101974
 10
9.497194311179337
 20
1.912294943341573
 10
9.501258163939736
 20
1.910940325754774
 10
9.505322016700138
 20
1.910940325754774
 10
9.505322016700138
 20
1.913649560928374
 10
9.495839693592536
 20
1.920422648862374
 10
9.494485076005734
 20
1.924486501622775
 10
9.494485076005734
 20
1.927195736796375
 10
9.483648135311334
 20
1.938032677490775
 10
9.472811194616934
 20
1.946160383011576
 10
9.460619636335736
 20
1.954288088532377
 10
9.447073460467735
 20
1.961061176466377
 10
9.428108814252534
 20
1.971898117160777
 10
9.406434932863732
 20
1.980025822681578
 10
9.37256949319373
 20
1.988153528202378
 10
9.364441787672927
 20
1.990862763375978
 10
9.350895611804928
 20
1.992217380962778
 10
9.331930965589727
 20
1.993571998549578
 10
9.311611701787728
 20
1.993571998549578
 10
9.303483996266927
 20
1.992217380962778
 10
9.289937820398926
 20
1.992217380962778
 10
9.280455497291324
 20
1.989508145789178
 10
9.275037026944124
 20
1.988153528202378
 10
9.277746262117725
 20
1.986798910615577
 10
9.281810114878123
 20
1.986798910615577
 10
9.284519350051726
 20
1.984089675441977
 10
9.289937820398926
 20
1.981380440268378
 10
9.291292437985726
 20
1.984089675441977
 10
9.287228585225323
 20
1.985444293028778
 10
9.291292437985726
 20
1.988153528202378
 10
9.302129378680126
 20
1.988153528202378
 10
9.306193231440526
 20
1.986798910615577
 10
9.310257084200927
 20
1.989508145789178
 10
9.318384789721728
 20
1.989508145789178
 10
9.330576348002927
 20
1.989508145789178
 10
9.334640200763328
 20
1.989508145789178
 10
9.335994818350128
 20
1.988153528202378
 10
9.340058671110528
 20
1.988153528202378
 10
9.342767906284127
 20
1.988153528202378
 10
9.348186376631327
 20
1.988153528202378
 10
9.348186376631327
 20
1.986798910615577
 10
9.346831759044528
 20
1.985444293028778
 10
9.341413288697328
 20
1.984089675441977
 10
9.333285583176528
 20
1.982735057855178
 10
9.325157877655727
 20
1.985444293028778
 10
9.319739407308527
 20
1.984089675441977
 10
9.319739407308527
 20
1.982735057855178
 10
9.325157877655727
 20
1.982735057855178
 10
9.331930965589727
 20
1.982735057855178
 10
9.341413288697328
 20
1.982735057855178
 10
9.346831759044528
 20
1.982735057855178
 10
9.350895611804928
 20
1.982735057855178
 10
9.350895611804928
 20
1.985444293028778
 10
9.353604846978527
 20
1.985444293028778
 10
9.359023317325727
 20
1.984089675441977
 10
9.36037793491253
 20
1.981380440268378
 10
9.36579640525973
 20
1.980025822681578
 10
9.37256949319373
 20
1.978671205094777
 10
9.37798796354093
 20
1.977316587507977
 10
9.38069719871453
 20
1.975961969921177
 10
9.38611566906173
 20
1.974607352334378
 10
9.387470286648531
 20
1.973252734747577
 10
9.387470286648531
 20
1.970543499573977
 10
9.383406433888132
 20
1.969188881987177
 10
9.383406433888132
 20
1.973252734747577
 10
9.37934258112773
 20
1.974607352334378
 10
9.37392411078053
 20
1.975961969921177
 10
9.36850564043333
 20
1.974607352334378
 10
9.36579640525973
 20
1.971898117160777
 10
9.364441787672927
 20
1.969188881987177
 10
9.36173255249933
 20
1.967834264400377
  0
LWPOLYLINE
  5
3D6D
330
3D59
100
AcDbEntity
  8
TBTEXT
100
AcDbPolyline
 90
      210
 70
     0
 43
0.0
 10
9.36173255249933
 20
1.966479646813577
 10
9.364441787672927
 20
1.962415794053177
 10
9.36850564043333
 20
1.959706558879577
 10
9.37392411078053
 20
1.958351941292776
 10
9.376633345954131
 20
1.955642706119176
 10
9.382051816301331
 20
1.952933470945576
 10
9.387470286648531
 20
1.950224235771976
 10
9.39153413940893
 20
1.944805765424775
 10
9.39559799216933
 20
1.939387295077575
 10
9.401016462516532
 20
1.935323442317176
 10
9.406434932863732
 20
1.932614207143575
 10
9.411853403210932
 20
1.931259589556774
 10
9.414562638384531
 20
1.931259589556774
 10
9.413208020797732
 20
1.936678059903975
 10
9.417271873558132
 20
1.936678059903975
 10
9.418626491144932
 20
1.933968824730375
 10
9.421335726318533
 20
1.929904971969975
 10
9.426754196665733
 20
1.927195736796375
 10
9.430818049426133
 20
1.924486501622775
 10
9.433527284599734
 20
1.925841119209574
 10
9.425399579078933
 20
1.931259589556774
 10
9.421335726318533
 20
1.933968824730375
 10
9.428108814252534
 20
1.932614207143575
 10
9.430818049426133
 20
1.933968824730375
 10
9.426754196665733
 20
1.938032677490775
 10
9.417271873558132
 20
1.944805765424775
 10
9.410498785624132
 20
1.948869618185177
 10
9.39153413940893
 20
1.956997323705977
 10
9.387470286648531
 20
1.958351941292776
 10
9.38882490423533
 20
1.961061176466377
 10
9.39153413940893
 20
1.961061176466377
 10
9.394243374582532
 20
1.958351941292776
 10
9.396952609756132
 20
1.955642706119176
 10
9.403725697690131
 20
1.954288088532377
 10
9.410498785624132
 20
1.951578853358776
 10
9.413208020797732
 20
1.951578853358776
 10
9.413208020797732
 20
1.955642706119176
 10
9.411853403210932
 20
1.958351941292776
 10
9.417271873558132
 20
1.952933470945576
 10
9.421335726318533
 20
1.950224235771976
 10
9.424044961492132
 20
1.951578853358776
 10
9.425399579078933
 20
1.947515000598376
 10
9.426754196665733
 20
1.944805765424775
 10
9.432172667012933
 20
1.943451147837976
 10
9.436236519773333
 20
1.939387295077575
 10
9.438945754946934
 20
1.933968824730375
 10
9.437591137360133
 20
1.928550354383175
 10
9.434881902186534
 20
1.927195736796375
 10
9.433527284599734
 20
1.919068031275574
 10
9.434881902186534
 20
1.915004178515174
 10
9.437591137360133
 20
1.912294943341573
 10
9.440300372533734
 20
1.910940325754774
 10
9.444364225294134
 20
1.908231090581174
 10
9.444364225294134
 20
1.901458002647173
 10
9.444364225294134
 20
1.897394149886773
 10
9.445718842880934
 20
1.893330297126373
 10
9.444364225294134
 20
1.890621061952773
 10
9.441654990120535
 20
1.887911826779173
 10
9.443009607707333
 20
1.886557209192372
 10
9.452491930814935
 20
1.885202591605573
 10
9.456555783575334
 20
1.885202591605573
 10
9.459265018748935
 20
1.882493356431973
 10
9.460619636335736
 20
1.879784121258372
 10
9.463328871509335
 20
1.877074886084773
 10
9.464683489096135
 20
1.874365650911172
 10
9.461974253922534
 20
1.868947180563972
 10
9.460619636335736
 20
1.866237945390371
 10
9.456555783575334
 20
1.866237945390371
 10
9.456555783575334
 20
1.860819475043171
 10
9.457910401162135
 20
1.855401004695971
 10
9.460619636335736
 20
1.855401004695971
 10
9.461974253922534
 20
1.85133715193557
 10
9.468747341856536
 20
1.84591868158837
 10
9.474165812203735
 20
1.84320944641477
 10
9.478229664964134
 20
1.84185482882797
 10
9.482293517724536
 20
1.84320944641477
 10
9.486357370484937
 20
1.84591868158837
 10
9.487711988071736
 20
1.85133715193557
 10
9.486357370484937
 20
1.856755622282771
 10
9.487711988071736
 20
1.858110239869571
 10
9.483648135311334
 20
1.862174092629971
 10
9.479584282550936
 20
1.866237945390371
 10
9.478229664964134
 20
1.874365650911172
 10
9.476875047377336
 20
1.881138738845172
 10
9.474165812203735
 20
1.882493356431973
 10
9.475520429790535
 20
1.886557209192372
 10
9.476875047377336
 20
1.889266444365973
 10
9.475520429790535
 20
1.894684914713173
 10
9.476875047377336
 20
1.896039532299973
 10
9.479584282550936
 20
1.893330297126373
 10
9.482293517724536
 20
1.890621061952773
 10
9.487711988071736
 20
1.885202591605573
 10
9.490421223245336
 20
1.883847974018772
 10
9.489066605658534
 20
1.886557209192372
 10
9.483648135311334
 20
1.891975679539572
 10
9.483648135311334
 20
1.894684914713173
 10
9.491775840832137
 20
1.894684914713173
 10
9.494485076005734
 20
1.894684914713173
 10
9.495839693592536
 20
1.893330297126373
 10
9.498548928766137
 20
1.890621061952773
 10
9.499903546352938
 20
1.889266444365973
 10
9.501258163939736
 20
1.885202591605573
 10
9.502612781526537
 20
1.886557209192372
 10
9.499903546352938
 20
1.891975679539572
 10
9.497194311179337
 20
1.896039532299973
 10
9.494485076005734
 20
1.898748767473573
 10
9.493130458418937
 20
1.901458002647173
 10
9.489066605658534
 20
1.901458002647173
 10
9.480938900137735
 20
1.901458002647173
 10
9.475520429790535
 20
1.904167237820773
 10
9.474165812203735
 20
1.908231090581174
 10
9.480938900137735
 20
1.908231090581174
 10
9.483648135311334
 20
1.906876472994373
 10
9.487711988071736
 20
1.908231090581174
 10
9.491775840832137
 20
1.906876472994373
 10
9.495839693592536
 20
1.904167237820773
 10
9.498548928766137
 20
1.901458002647173
 10
9.503967399113337
 20
1.900103385060373
 10
9.503967399113337
 20
1.901458002647173
 10
9.497194311179337
 20
1.906876472994373
 10
9.494485076005734
 20
1.910940325754774
 10
9.491775840832137
 20
1.915004178515174
 10
9.490421223245336
 20
1.917713413688774
 10
9.486357370484937
 20
1.921777266449175
 10
9.482293517724536
 20
1.927195736796375
 10
9.475520429790535
 20
1.931259589556774
 10
9.471456577030136
 20
1.935323442317176
 10
9.472811194616934
 20
1.938032677490775
 10
9.468747341856536
 20
1.942096530251176
 10
9.464683489096135
 20
1.946160383011576
 10
9.472811194616934
 20
1.943451147837976
 10
9.474165812203735
 20
1.940741912664376
 10
9.476875047377336
 20
1.938032677490775
 10
9.479584282550936
 20
1.933968824730375
 10
9.483648135311334
 20
1.928550354383175
 10
9.487711988071736
 20
1.925841119209574
 10
9.490421223245336
 20
1.920422648862374
 10
9.493130458418937
 20
1.916358796101974
 10
9.497194311179337
 20
1.912294943341573
 10
9.501258163939736
 20
1.910940325754774
 10
9.505322016700138
 20
1.910940325754774
 10
9.505322016700138
 20
1.913649560928374
 10
9.495839693592536
 20
1.920422648862374
 10
9.494485076005734
 20
1.924486501622775
 10
9.494485076005734
 20
1.927195736796375
 10
9.483648135311334
 20
1.938032677490775
 10
9.472811194616934
 20
1.946160383011576
 10
9.460619636335736
 20
1.954288088532377
 10
9.447073460467735
 20
1.961061176466377
 10
9.428108814252534
 20
1.971898117160777
 10
9.406434932863732
 20
1.980025822681578
 10
9.37256949319373
 20
1.988153528202378
 10
9.364441787672927
 20
1.990862763375978
 10
9.350895611804928
 20
1.992217380962778
 10
9.331930965589727
 20
1.993571998549578
 10
9.311611701787728
 20
1.993571998549578
 10
9.303483996266927
 20
1.992217380962778
 10
9.289937820398926
 20
1.992217380962778
 10
9.280455497291324
 20
1.989508145789178
 10
9.275037026944124
 20
1.988153528202378
 10
9.277746262117725
 20
1.986798910615577
 10
9.281810114878123
 20
1.986798910615577
 10
9.284519350051726
 20
1.984089675441977
 10
9.289937820398926
 20
1.981380440268378
 10
9.291292437985726
 20
1.984089675441977
 10
9.287228585225323
 20
1.985444293028778
 10
9.291292437985726
 20
1.988153528202378
 10
9.302129378680126
 20
1.988153528202378
 10
9.306193231440526
 20
1.986798910615577
 10
9.310257084200927
 20
1.989508145789178
 10
9.318384789721728
 20
1.989508145789178
 10
9.330576348002927
 20
1.989508145789178
 10
9.334640200763328
 20
1.989508145789178
 10
9.335994818350128
 20
1.988153528202378
 10
9.340058671110528
 20
1.988153528202378
 10
9.342767906284127
 20
1.988153528202378
 10
9.348186376631327
 20
1.988153528202378
 10
9.348186376631327
 20
1.986798910615577
 10
9.346831759044528
 20
1.985444293028778
 10
9.341413288697328
 20
1.984089675441977
 10
9.333285583176528
 20
1.982735057855178
 10
9.325157877655727
 20
1.985444293028778
 10
9.319739407308527
 20
1.984089675441977
 10
9.319739407308527
 20
1.982735057855178
 10
9.325157877655727
 20
1.982735057855178
 10
9.331930965589727
 20
1.982735057855178
 10
9.341413288697328
 20
1.982735057855178
 10
9.346831759044528
 20
1.982735057855178
 10
9.350895611804928
 20
1.982735057855178
 10
9.350895611804928
 20
1.985444293028778
 10
9.353604846978527
 20
1.985444293028778
 10
9.359023317325727
 20
1.984089675441977
 10
9.36037793491253
 20
1.981380440268378
 10
9.36579640525973
 20
1.980025822681578
 10
9.37256949319373
 20
1.978671205094777
 10
9.37798796354093
 20
1.977316587507977
 10
9.38069719871453
 20
1.975961969921177
 10
9.38611566906173
 20
1.974607352334378
 10
9.387470286648531
 20
1.973252734747577
 10
9.387470286648531
 20
1.970543499573977
 10
9.383406433888132
 20
1.969188881987177
 10
9.383406433888132
 20
1.973252734747577
 10
9.37934258112773
 20
1.974607352334378
 10
9.37392411078053
 20
1.975961969921177
 10
9.36850564043333
 20
1.974607352334378
 10
9.36579640525973
 20
1.971898117160777
 10
9.364441787672927
 20
1.969188881987177
 10
9.36173255249933
 20
1.967834264400377
 10
9.36173255249933
 20
1.966479646813577
 10
9.36173255249933
 20
1.966479646813577
  0
LWPOLYLINE
  5
3D6E
330
3D59
100
AcDbEntity
  8
TBTEXT
100
AcDbPolyline
 90
       18
 70
     0
 43
0.0027092351736002
 10
9.357668699738928
 20
1.925841119209574
 10
9.35631408215213
 20
1.923131884035974
 10
9.35495946456533
 20
1.920422648862374
 10
9.353604846978527
 20
1.919068031275574
 10
9.350895611804928
 20
1.919068031275574
 10
9.348186376631327
 20
1.917713413688774
 10
9.346831759044528
 20
1.915004178515174
 10
9.350895611804928
 20
1.913649560928374
 10
9.35495946456533
 20
1.912294943341573
 10
9.359023317325727
 20
1.913649560928374
 10
9.364441787672927
 20
1.915004178515174
 10
9.36579640525973
 20
1.917713413688774
 10
9.36579640525973
 20
1.920422648862374
 10
9.364441787672927
 20
1.923131884035974
 10
9.36173255249933
 20
1.925841119209574
 10
9.357668699738928
 20
1.925841119209574
 10
9.357668699738928
 20
1.925841119209574
 10
9.357668699738928
 20
1.925841119209574
  0
LWPOLYLINE
  5
3D6F
330
3D59
100
AcDbEntity
  8
TBTEXT
100
AcDbPolyline
 90
       40
 70
     0
 43
0.0
 10
9.302129378680126
 20
1.828308652959969
 10
9.302129378680126
 20
1.828308652959969
 10
9.303483996266927
 20
1.825599417786369
 10
9.302129378680126
 20
1.822890182612769
 10
9.299420143506525
 20
1.820180947439168
 10
9.299420143506525
 20
1.817471712265569
 10
9.300774761093326
 20
1.817471712265569
 10
9.302129378680126
 20
1.820180947439168
 10
9.303483996266927
 20
1.818826329852369
 10
9.304838613853727
 20
1.817471712265569
 10
9.306193231440526
 20
1.817471712265569
 10
9.306193231440526
 20
1.820180947439168
 10
9.308902466614127
 20
1.820180947439168
 10
9.308902466614127
 20
1.816117094678769
 10
9.310257084200927
 20
1.816117094678769
 10
9.311611701787728
 20
1.816117094678769
 10
9.312966319374526
 20
1.814762477091968
 10
9.314320936961327
 20
1.813407859505168
 10
9.315675554548127
 20
1.810698624331569
 10
9.319739407308527
 20
1.810698624331569
 10
9.318384789721728
 20
1.806634771571168
 10
9.314320936961327
 20
1.805280153984368
 10
9.311611701787728
 20
1.806634771571168
 10
9.310257084200927
 20
1.805280153984368
 10
9.310257084200927
 20
1.802570918810768
 10
9.304838613853727
 20
1.806634771571168
 10
9.300774761093326
 20
1.806634771571168
 10
9.296710908332926
 20
1.806634771571168
 10
9.294001673159325
 20
1.805280153984368
 10
9.294001673159325
 20
1.805280153984368
 10
9.294001673159325
 20
1.806634771571168
 10
9.294001673159325
 20
1.809344006744768
 10
9.294001673159325
 20
1.809344006744768
 10
9.294001673159325
 20
1.817471712265569
 10
9.296710908332926
 20
1.820180947439168
 10
9.298065525919727
 20
1.824244800199569
 10
9.299420143506525
 20
1.826954035373169
 10
9.302129378680126
 20
1.829663270546769
 10
9.302129378680126
 20
1.828308652959969
 10
9.302129378680126
 20
1.828308652959969
  0
LWPOLYLINE
  5
3D70
330
3D59
100
AcDbEntity
  8
TBTEXT
100
AcDbPolyline
 90
       38
 70
     0
 43
0.0027092351736002
 10
9.302129378680126
 20
1.828308652959969
 10
9.302129378680126
 20
1.828308652959969
 10
9.303483996266927
 20
1.825599417786369
 10
9.302129378680126
 20
1.822890182612769
 10
9.299420143506525
 20
1.820180947439168
 10
9.299420143506525
 20
1.817471712265569
 10
9.300774761093326
 20
1.817471712265569
 10
9.302129378680126
 20
1.820180947439168
 10
9.303483996266927
 20
1.818826329852369
 10
9.304838613853727
 20
1.817471712265569
 10
9.306193231440526
 20
1.817471712265569
 10
9.306193231440526
 20
1.820180947439168
 10
9.308902466614127
 20
1.820180947439168
 10
9.308902466614127
 20
1.816117094678769
 10
9.310257084200927
 20
1.816117094678769
 10
9.311611701787728
 20
1.816117094678769
 10
9.312966319374526
 20
1.814762477091968
 10
9.314320936961327
 20
1.813407859505168
 10
9.315675554548127
 20
1.810698624331569
 10
9.319739407308527
 20
1.810698624331569
 10
9.318384789721728
 20
1.806634771571168
 10
9.314320936961327
 20
1.805280153984368
 10
9.311611701787728
 20
1.806634771571168
 10
9.310257084200927
 20
1.805280153984368
 10
9.310257084200927
 20
1.802570918810768
 10
9.304838613853727
 20
1.806634771571168
 10
9.300774761093326
 20
1.806634771571168
 10
9.296710908332926
 20
1.806634771571168
 10
9.294001673159325
 20
1.805280153984368
 10
9.294001673159325
 20
1.805280153984368
 10
9.294001673159325
 20
1.806634771571168
 10
9.294001673159325
 20
1.809344006744768
 10
9.294001673159325
 20
1.809344006744768
 10
9.294001673159325
 20
1.817471712265569
 10
9.296710908332926
 20
1.820180947439168
 10
9.298065525919727
 20
1.824244800199569
 10
9.299420143506525
 20
1.826954035373169
 10
9.302129378680126
 20
1.829663270546769
  0
LWPOLYLINE
  5
3D71
330
3D59
100
AcDbEntity
  8
TBTEXT
100
AcDbPolyline
 90
       27
 70
     0
 43
0.0027092351736002
 10
9.20324229484372
 20
1.66575454254396
 10
9.20459691243052
 20
1.66304530737036
 10
9.21001538277772
 20
1.66575454254396
 10
9.211370000364521
 20
1.667109160130761
 10
9.21543385312492
 20
1.66575454254396
 10
9.223561558645722
 20
1.66304530737036
 10
9.227625411406121
 20
1.66169068978356
 10
9.230334646579722
 20
1.65898145460996
 10
9.233043881753323
 20
1.657626837023159
 10
9.235753116926922
 20
1.65627221943636
 10
9.238462352100521
 20
1.652208366675959
 10
9.243880822447723
 20
1.65356298426276
 10
9.250653910381724
 20
1.654917601849559
 10
9.250653910381724
 20
1.657626837023159
 10
9.245235440034522
 20
1.65898145460996
 10
9.238462352100521
 20
1.66033607219676
 10
9.233043881753323
 20
1.66439992495716
 10
9.226270793819323
 20
1.667109160130761
 10
9.219497705885322
 20
1.667109160130761
 10
9.218143088298522
 20
1.66981839530436
 10
9.21407923553812
 20
1.66981839530436
 10
9.21001538277772
 20
1.67117301289116
 10
9.20730614760412
 20
1.66846377771756
 10
9.20459691243052
 20
1.66575454254396
 10
9.20324229484372
 20
1.66575454254396
 10
9.20324229484372
 20
1.66575454254396
 10
9.20324229484372
 20
1.66575454254396
  0
LWPOLYLINE
  5
3D72
330
3D59
100
AcDbEntity
  8
TBTEXT
100
AcDbPolyline
 90
       21
 70
     0
 43
0.0027092351736002
 10
9.250653910381724
 20
1.646789896328759
 10
9.253363145555323
 20
1.649499131502359
 10
9.256072380728924
 20
1.649499131502359
 10
9.258781615902523
 20
1.649499131502359
 10
9.260136233489323
 20
1.649499131502359
 10
9.258781615902523
 20
1.652208366675959
 10
9.256072380728924
 20
1.65356298426276
 10
9.254717763142123
 20
1.654917601849559
 10
9.258781615902523
 20
1.65627221943636
 10
9.265554703836523
 20
1.654917601849559
 10
9.269618556596924
 20
1.65356298426276
 10
9.275037026944124
 20
1.65356298426276
 10
9.276391644530923
 20
1.65356298426276
 10
9.279100879704524
 20
1.649499131502359
 10
9.272327791770524
 20
1.646789896328759
 10
9.266909321423324
 20
1.645435278741959
 10
9.258781615902523
 20
1.644080661155158
 10
9.253363145555323
 20
1.645435278741959
 10
9.250653910381724
 20
1.646789896328759
 10
9.250653910381724
 20
1.646789896328759
 10
9.250653910381724
 20
1.646789896328759
  0
LWPOLYLINE
  5
3D73
330
3D59
100
AcDbEntity
  8
TBTEXT
100
AcDbPolyline
 90
       86
 70
     0
 43
0.0027092351736002
 10
9.18834150138892
 20
1.797152448463568
 10
9.18969611897572
 20
1.795797830876767
 10
9.19105073656252
 20
1.794443213289967
 10
9.19511458932292
 20
1.797152448463568
 10
9.19646920690972
 20
1.798507066050368
 10
9.19782382449652
 20
1.794443213289967
 10
9.20053305967012
 20
1.793088595703167
 10
9.20188767725692
 20
1.794443213289967
 10
9.20324229484372
 20
1.793088595703167
 10
9.205951530017321
 20
1.793088595703167
 10
9.205951530017321
 20
1.790379360529567
 10
9.20459691243052
 20
1.789024742942767
 10
9.20053305967012
 20
1.789024742942767
 10
9.19782382449652
 20
1.786315507769167
 10
9.19646920690972
 20
1.783606272595567
 10
9.19646920690972
 20
1.780897037421966
 10
9.19646920690972
 20
1.778187802248367
 10
9.19375997173612
 20
1.775478567074766
 10
9.19511458932292
 20
1.771414714314366
 10
9.19511458932292
 20
1.768705479140765
 10
9.19782382449652
 20
1.768705479140765
 10
9.19917844208332
 20
1.771414714314366
 10
9.19917844208332
 20
1.775478567074766
 10
9.19917844208332
 20
1.779542419835166
 10
9.20053305967012
 20
1.782251655008766
 10
9.20324229484372
 20
1.783606272595567
 10
9.20459691243052
 20
1.784960890182367
 10
9.20459691243052
 20
1.787670125355966
 10
9.20730614760412
 20
1.789024742942767
 10
9.20866076519092
 20
1.789024742942767
 10
9.211370000364521
 20
1.784960890182367
 10
9.211370000364521
 20
1.782251655008766
 10
9.21001538277772
 20
1.779542419835166
 10
9.212724617951322
 20
1.776833184661566
 10
9.212724617951322
 20
1.775478567074766
 10
9.211370000364521
 20
1.771414714314366
 10
9.21001538277772
 20
1.768705479140765
 10
9.21001538277772
 20
1.768705479140765
 10
9.211370000364521
 20
1.767350861553966
 10
9.211370000364521
 20
1.767350861553966
 10
9.216788470711721
 20
1.767350861553966
 10
9.218143088298522
 20
1.768705479140765
 10
9.22085232347212
 20
1.770060096727566
 10
9.22085232347212
 20
1.771414714314366
 10
9.222206941058921
 20
1.774123949487966
 10
9.223561558645722
 20
1.775478567074766
 10
9.226270793819323
 20
1.775478567074766
 10
9.230334646579722
 20
1.775478567074766
 10
9.233043881753323
 20
1.776833184661566
 10
9.234398499340122
 20
1.778187802248367
 10
9.234398499340122
 20
1.780897037421966
 10
9.234398499340122
 20
1.782251655008766
 10
9.230334646579722
 20
1.780897037421966
 10
9.226270793819323
 20
1.780897037421966
 10
9.224916176232522
 20
1.779542419835166
 10
9.224916176232522
 20
1.778187802248367
 10
9.223561558645722
 20
1.775478567074766
 10
9.22085232347212
 20
1.774123949487966
 10
9.21543385312492
 20
1.772769331901166
 10
9.212724617951322
 20
1.771414714314366
 10
9.21407923553812
 20
1.775478567074766
 10
9.21543385312492
 20
1.776833184661566
 10
9.216788470711721
 20
1.778187802248367
 10
9.218143088298522
 20
1.782251655008766
 10
9.219497705885322
 20
1.782251655008766
 10
9.22085232347212
 20
1.784960890182367
 10
9.219497705885322
 20
1.786315507769167
 10
9.21407923553812
 20
1.789024742942767
 10
9.211370000364521
 20
1.789024742942767
 10
9.20866076519092
 20
1.790379360529567
 10
9.20730614760412
 20
1.790379360529567
 10
9.20730614760412
 20
1.793088595703167
 10
9.20866076519092
 20
1.794443213289967
 10
9.20866076519092
 20
1.795797830876767
 10
9.20730614760412
 20
1.798507066050368
 10
9.20459691243052
 20
1.801216301223967
 10
9.20324229484372
 20
1.803925536397568
 10
9.20053305967012
 20
1.805280153984368
 10
9.19782382449652
 20
1.805280153984368
 10
9.19646920690972
 20
1.803925536397568
 10
9.19240535414932
 20
1.801216301223967
 10
9.18969611897572
 20
1.798507066050368
 10
9.18834150138892
 20
1.798507066050368
 10
9.18834150138892
 20
1.797152448463568
 10
9.18834150138892
 20
1.797152448463568
 10
9.18834150138892
 20
1.797152448463568
  0
LWPOLYLINE
  5
3D74
330
3D59
100
AcDbEntity
  8
TBTEXT
100
AcDbPolyline
 90
       10
 70
     0
 43
0.0027092351736002
 10
9.233043881753323
 20
1.645435278741959
 10
9.235753116926922
 20
1.644080661155158
 10
9.239816969687324
 20
1.644080661155158
 10
9.242526204860923
 20
1.644080661155158
 10
9.239816969687324
 20
1.645435278741959
 10
9.237107734513723
 20
1.646789896328759
 10
9.235753116926922
 20
1.645435278741959
 10
9.233043881753323
 20
1.645435278741959
 10
9.233043881753323
 20
1.645435278741959
 10
9.233043881753323
 20
1.645435278741959
  0
LWPOLYLINE
  5
3D75
330
3D59
100
AcDbEntity
  8
TBTEXT
100
AcDbPolyline
 90
        9
 70
     0
 43
0.0027092351736002
 10
9.289937820398926
 20
1.650853749089159
 10
9.289937820398926
 20
1.646789896328759
 10
9.294001673159325
 20
1.645435278741959
 10
9.295356290746126
 20
1.645435278741959
 10
9.295356290746126
 20
1.64814451391556
 10
9.294001673159325
 20
1.650853749089159
 10
9.289937820398926
 20
1.650853749089159
 10
9.289937820398926
 20
1.650853749089159
 10
9.289937820398926
 20
1.650853749089159
  0
LWPOLYLINE
  5
3D76
330
3D59
100
AcDbEntity
  8
TBTEXT
100
AcDbPolyline
 90
        7
 70
     0
 43
0.0054184703472003
 10
9.242526204860923
 20
1.938032677490775
 10
9.243880822447723
 20
1.936678059903975
 10
9.245235440034522
 20
1.936678059903975
 10
9.246590057621324
 20
1.938032677490775
 10
9.247944675208123
 20
1.939387295077575
 10
9.245235440034522
 20
1.940741912664376
 10
9.242526204860923
 20
1.939387295077575
  0
LWPOLYLINE
  5
3D77
330
3D59
100
AcDbEntity
  8
TBTEXT
100
AcDbPolyline
 90
       63
 70
     0
 43
0.0027092351736002
 10
9.235753116926922
 20
1.916358796101974
 10
9.231689264166523
 20
1.912294943341573
 10
9.230334646579722
 20
1.910940325754774
 10
9.233043881753323
 20
1.908231090581174
 10
9.234398499340122
 20
1.906876472994373
 10
9.234398499340122
 20
1.905521855407573
 10
9.228980028992922
 20
1.905521855407573
 10
9.227625411406121
 20
1.904167237820773
 10
9.227625411406121
 20
1.902812620233974
 10
9.234398499340122
 20
1.901458002647173
 10
9.238462352100521
 20
1.901458002647173
 10
9.242526204860923
 20
1.901458002647173
 10
9.245235440034522
 20
1.904167237820773
 10
9.245235440034522
 20
1.904167237820773
 10
9.245235440034522
 20
1.901458002647173
 10
9.245235440034522
 20
1.898748767473573
 10
9.246590057621324
 20
1.897394149886773
 10
9.249299292794923
 20
1.897394149886773
 10
9.253363145555323
 20
1.894684914713173
 10
9.253363145555323
 20
1.893330297126373
 10
9.252008527968522
 20
1.891975679539572
 10
9.250653910381724
 20
1.891975679539572
 10
9.249299292794923
 20
1.889266444365973
 10
9.249299292794923
 20
1.886557209192372
 10
9.245235440034522
 20
1.883847974018772
 10
9.241171587274122
 20
1.883847974018772
 10
9.239816969687324
 20
1.881138738845172
 10
9.241171587274122
 20
1.881138738845172
 10
9.245235440034522
 20
1.881138738845172
 10
9.247944675208123
 20
1.881138738845172
 10
9.249299292794923
 20
1.879784121258372
 10
9.250653910381724
 20
1.878429503671572
 10
9.253363145555323
 20
1.877074886084773
 10
9.253363145555323
 20
1.877074886084773
 10
9.258781615902523
 20
1.878429503671572
 10
9.258781615902523
 20
1.878429503671572
 10
9.262845468662924
 20
1.879784121258372
 10
9.269618556596924
 20
1.878429503671572
 10
9.272327791770524
 20
1.879784121258372
 10
9.268263939010124
 20
1.882493356431973
 10
9.265554703836523
 20
1.883847974018772
 10
9.262845468662924
 20
1.887911826779173
 10
9.262845468662924
 20
1.889266444365973
 10
9.265554703836523
 20
1.889266444365973
 10
9.269618556596924
 20
1.886557209192372
 10
9.270973174183723
 20
1.886557209192372
 10
9.272327791770524
 20
1.890621061952773
 10
9.272327791770524
 20
1.893330297126373
 10
9.270973174183723
 20
1.894684914713173
 10
9.264200086249724
 20
1.897394149886773
 10
9.260136233489323
 20
1.898748767473573
 10
9.264200086249724
 20
1.900103385060373
 10
9.264200086249724
 20
1.902812620233974
 10
9.262845468662924
 20
1.905521855407573
 10
9.254717763142123
 20
1.906876472994373
 10
9.252008527968522
 20
1.910940325754774
 10
9.247944675208123
 20
1.916358796101974
 10
9.246590057621324
 20
1.917713413688774
 10
9.242526204860923
 20
1.916358796101974
 10
9.239816969687324
 20
1.915004178515174
 10
9.235753116926922
 20
1.916358796101974
 10
9.235753116926922
 20
1.916358796101974
 10
9.235753116926922
 20
1.916358796101974
  0
LWPOLYLINE
  5
3D78
330
3D59
100
AcDbEntity
  8
TBTEXT
100
AcDbPolyline
 90
       29
 70
     0
 43
0.0027092351736002
 10
9.249299292794923
 20
1.943451147837976
 10
9.256072380728924
 20
1.944805765424775
 10
9.257426998315724
 20
1.944805765424775
 10
9.258781615902523
 20
1.947515000598376
 10
9.262845468662924
 20
1.947515000598376
 10
9.266909321423324
 20
1.947515000598376
 10
9.268263939010124
 20
1.947515000598376
 10
9.269618556596924
 20
1.946160383011576
 10
9.265554703836523
 20
1.943451147837976
 10
9.265554703836523
 20
1.942096530251176
 10
9.262845468662924
 20
1.940741912664376
 10
9.261490851076124
 20
1.938032677490775
 10
9.258781615902523
 20
1.938032677490775
 10
9.257426998315724
 20
1.935323442317176
 10
9.256072380728924
 20
1.932614207143575
 10
9.253363145555323
 20
1.929904971969975
 10
9.252008527968522
 20
1.927195736796375
 10
9.247944675208123
 20
1.927195736796375
 10
9.242526204860923
 20
1.928550354383175
 10
9.246590057621324
 20
1.931259589556774
 10
9.247944675208123
 20
1.935323442317176
 10
9.250653910381724
 20
1.935323442317176
 10
9.252008527968522
 20
1.938032677490775
 10
9.253363145555323
 20
1.939387295077575
 10
9.252008527968522
 20
1.940741912664376
 10
9.249299292794923
 20
1.940741912664376
 10
9.249299292794923
 20
1.943451147837976
 10
9.249299292794923
 20
1.943451147837976
 10
9.249299292794923
 20
1.943451147837976
  0
LWPOLYLINE
  5
3D79
330
3D59
100
AcDbEntity
  8
TBTEXT
100
AcDbPolyline
 90
        9
 70
     0
 43
0.0
 10
9.242526204860923
 20
1.938032677490775
 10
9.243880822447723
 20
1.936678059903975
 10
9.245235440034522
 20
1.936678059903975
 10
9.246590057621324
 20
1.938032677490775
 10
9.247944675208123
 20
1.939387295077575
 10
9.245235440034522
 20
1.940741912664376
 10
9.242526204860923
 20
1.939387295077575
 10
9.242526204860923
 20
1.938032677490775
 10
9.242526204860923
 20
1.938032677490775
  0
LWPOLYLINE
  5
3D7A
330
3D59
100
AcDbEntity
  8
TBTEXT
100
AcDbPolyline
 90
       13
 70
     0
 43
0.0
 10
9.235753116926922
 20
1.927195736796375
 10
9.234398499340122
 20
1.923131884035974
 10
9.238462352100521
 20
1.920422648862374
 10
9.242526204860923
 20
1.919068031275574
 10
9.246590057621324
 20
1.920422648862374
 10
9.246590057621324
 20
1.923131884035974
 10
9.245235440034522
 20
1.924486501622775
 10
9.242526204860923
 20
1.923131884035974
 10
9.239816969687324
 20
1.924486501622775
 10
9.238462352100521
 20
1.925841119209574
 10
9.235753116926922
 20
1.928550354383175
 10
9.235753116926922
 20
1.927195736796375
 10
9.235753116926922
 20
1.927195736796375
  0
LWPOLYLINE
  5
3D7B
330
3D59
100
AcDbEntity
  8
TBTEXT
100
AcDbPolyline
 90
       12
 70
     0
 43
0.0027092351736002
 10
9.219497705885322
 20
1.916358796101974
 10
9.218143088298522
 20
1.912294943341573
 10
9.218143088298522
 20
1.910940325754774
 10
9.22085232347212
 20
1.910940325754774
 10
9.223561558645722
 20
1.913649560928374
 10
9.224916176232522
 20
1.916358796101974
 10
9.224916176232522
 20
1.919068031275574
 10
9.223561558645722
 20
1.920422648862374
 10
9.22085232347212
 20
1.916358796101974
 10
9.219497705885322
 20
1.916358796101974
 10
9.219497705885322
 20
1.916358796101974
 10
9.219497705885322
 20
1.916358796101974
  0
LWPOLYLINE
  5
3D7C
330
3D59
100
AcDbEntity
  8
TBTEXT
100
AcDbPolyline
 90
       27
 70
     0
 43
0.0027092351736002
 10
9.20459691243052
 20
1.919068031275574
 10
9.20188767725692
 20
1.917713413688774
 10
9.19917844208332
 20
1.915004178515174
 10
9.19782382449652
 20
1.913649560928374
 10
9.19782382449652
 20
1.910940325754774
 10
9.19917844208332
 20
1.909585708167974
 10
9.19646920690972
 20
1.908231090581174
 10
9.19511458932292
 20
1.909585708167974
 10
9.19511458932292
 20
1.908231090581174
 10
9.19375997173612
 20
1.904167237820773
 10
9.19511458932292
 20
1.902812620233974
 10
9.19511458932292
 20
1.902812620233974
 10
9.20053305967012
 20
1.902812620233974
 10
9.20053305967012
 20
1.902812620233974
 10
9.205951530017321
 20
1.902812620233974
 10
9.20866076519092
 20
1.900103385060373
 10
9.211370000364521
 20
1.904167237820773
 10
9.211370000364521
 20
1.908231090581174
 10
9.211370000364521
 20
1.910940325754774
 10
9.212724617951322
 20
1.912294943341573
 10
9.21543385312492
 20
1.915004178515174
 10
9.21543385312492
 20
1.917713413688774
 10
9.21407923553812
 20
1.917713413688774
 10
9.20866076519092
 20
1.920422648862374
 10
9.20459691243052
 20
1.919068031275574
 10
9.20459691243052
 20
1.919068031275574
 10
9.20459691243052
 20
1.919068031275574
  0
LWPOLYLINE
  5
3D7D
330
3D59
100
AcDbEntity
  8
TBTEXT
100
AcDbPolyline
 90
       10
 70
     0
 43
0.0027092351736002
 10
9.21543385312492
 20
1.929904971969975
 10
9.21543385312492
 20
1.925841119209574
 10
9.218143088298522
 20
1.923131884035974
 10
9.222206941058921
 20
1.923131884035974
 10
9.223561558645722
 20
1.925841119209574
 10
9.219497705885322
 20
1.928550354383175
 10
9.218143088298522
 20
1.928550354383175
 10
9.21543385312492
 20
1.929904971969975
 10
9.21543385312492
 20
1.929904971969975
 10
9.21543385312492
 20
1.929904971969975
  0
LWPOLYLINE
  5
3D7E
330
3D59
100
AcDbEntity
  8
TBTEXT
100
AcDbPolyline
 90
       14
 70
     0
 43
0.0027092351736002
 10
9.19511458932292
 20
1.920422648862374
 10
9.19782382449652
 20
1.916358796101974
 10
9.20188767725692
 20
1.919068031275574
 10
9.20459691243052
 20
1.920422648862374
 10
9.20730614760412
 20
1.920422648862374
 10
9.20866076519092
 20
1.923131884035974
 10
9.21001538277772
 20
1.924486501622775
 10
9.20730614760412
 20
1.925841119209574
 10
9.20459691243052
 20
1.925841119209574
 10
9.20188767725692
 20
1.924486501622775
 10
9.19917844208332
 20
1.921777266449175
 10
9.19511458932292
 20
1.920422648862374
 10
9.19511458932292
 20
1.920422648862374
 10
9.19511458932292
 20
1.920422648862374
  0
LWPOLYLINE
  5
3D7F
330
3D59
100
AcDbEntity
  8
TBTEXT
100
AcDbPolyline
 90
       11
 70
     0
 43
0.0027092351736002
 10
9.235753116926922
 20
1.927195736796375
 10
9.234398499340122
 20
1.923131884035974
 10
9.238462352100521
 20
1.920422648862374
 10
9.242526204860923
 20
1.919068031275574
 10
9.246590057621324
 20
1.920422648862374
 10
9.246590057621324
 20
1.923131884035974
 10
9.245235440034522
 20
1.924486501622775
 10
9.242526204860923
 20
1.923131884035974
 10
9.239816969687324
 20
1.924486501622775
 10
9.238462352100521
 20
1.925841119209574
 10
9.235753116926922
 20
1.928550354383175
  0
LWPOLYLINE
  5
3D80
330
3D59
100
AcDbEntity
  8
TBTEXT
100
AcDbPolyline
 90
       13
 70
     0
 43
0.0027092351736002
 10
9.226270793819323
 20
1.885202591605573
 10
9.223561558645722
 20
1.881138738845172
 10
9.222206941058921
 20
1.878429503671572
 10
9.222206941058921
 20
1.874365650911172
 10
9.224916176232522
 20
1.873011033324371
 10
9.227625411406121
 20
1.875720268497972
 10
9.233043881753323
 20
1.877074886084773
 10
9.231689264166523
 20
1.879784121258372
 10
9.228980028992922
 20
1.881138738845172
 10
9.228980028992922
 20
1.883847974018772
 10
9.226270793819323
 20
1.885202591605573
 10
9.226270793819323
 20
1.885202591605573
 10
9.226270793819323
 20
1.885202591605573
  0
LWPOLYLINE
  5
3D81
330
3D59
100
AcDbEntity
  8
TBTEXT
100
AcDbPolyline
 90
       13
 70
     0
 43
0.0
 10
9.315675554548127
 20
1.967834264400377
 10
9.317030172134926
 20
1.965125029226777
 10
9.318384789721728
 20
1.963770411639976
 10
9.321094024895327
 20
1.963770411639976
 10
9.326512495242527
 20
1.962415794053177
 10
9.327867112829328
 20
1.963770411639976
 10
9.329221730416128
 20
1.965125029226777
 10
9.325157877655727
 20
1.967834264400377
 10
9.321094024895327
 20
1.967834264400377
 10
9.318384789721728
 20
1.967834264400377
 10
9.315675554548127
 20
1.969188881987177
 10
9.315675554548127
 20
1.967834264400377
 10
9.315675554548127
 20
1.967834264400377
  0
LWPOLYLINE
  5
3D82
330
3D59
100
AcDbEntity
  8
TBTEXT
100
AcDbPolyline
 90
       11
 70
     0
 43
0.0027092351736002
 10
9.315675554548127
 20
1.967834264400377
 10
9.317030172134926
 20
1.965125029226777
 10
9.318384789721728
 20
1.963770411639976
 10
9.321094024895327
 20
1.963770411639976
 10
9.326512495242527
 20
1.962415794053177
 10
9.327867112829328
 20
1.963770411639976
 10
9.329221730416128
 20
1.965125029226777
 10
9.325157877655727
 20
1.967834264400377
 10
9.321094024895327
 20
1.967834264400377
 10
9.318384789721728
 20
1.967834264400377
 10
9.315675554548127
 20
1.969188881987177
  0
LWPOLYLINE
  5
3D83
330
3D59
100
AcDbEntity
  8
TBTEXT
100
AcDbPolyline
 90
       78
 70
     0
 43
0.0027092351736002
 10
9.260136233489323
 20
1.933968824730375
 10
9.260136233489323
 20
1.931259589556774
 10
9.264200086249724
 20
1.929904971969975
 10
9.261490851076124
 20
1.927195736796375
 10
9.264200086249724
 20
1.927195736796375
 10
9.269618556596924
 20
1.927195736796375
 10
9.273682409357324
 20
1.927195736796375
 10
9.277746262117725
 20
1.925841119209574
 10
9.280455497291324
 20
1.920422648862374
 10
9.279100879704524
 20
1.916358796101974
 10
9.281810114878123
 20
1.913649560928374
 10
9.285873967638524
 20
1.915004178515174
 10
9.288583202812125
 20
1.913649560928374
 10
9.285873967638524
 20
1.910940325754774
 10
9.281810114878123
 20
1.909585708167974
 10
9.284519350051726
 20
1.906876472994373
 10
9.287228585225323
 20
1.906876472994373
 10
9.292647055572523
 20
1.906876472994373
 10
9.292647055572523
 20
1.906876472994373
 10
9.292647055572523
 20
1.905521855407573
 10
9.292647055572523
 20
1.904167237820773
 10
9.292647055572523
 20
1.904167237820773
 10
9.287228585225323
 20
1.902812620233974
 10
9.288583202812125
 20
1.898748767473573
 10
9.292647055572523
 20
1.890621061952773
 10
9.300774761093326
 20
1.886557209192372
 10
9.304838613853727
 20
1.882493356431973
 10
9.308902466614127
 20
1.878429503671572
 10
9.321094024895327
 20
1.877074886084773
 10
9.322448642482128
 20
1.877074886084773
 10
9.323803260068926
 20
1.881138738845172
 10
9.322448642482128
 20
1.886557209192372
 10
9.321094024895327
 20
1.891975679539572
 10
9.321094024895327
 20
1.897394149886773
 10
9.318384789721728
 20
1.900103385060373
 10
9.322448642482128
 20
1.902812620233974
 10
9.325157877655727
 20
1.904167237820773
 10
9.327867112829328
 20
1.908231090581174
 10
9.329221730416128
 20
1.910940325754774
 10
9.325157877655727
 20
1.912294943341573
 10
9.326512495242527
 20
1.916358796101974
 10
9.329221730416128
 20
1.916358796101974
 10
9.331930965589727
 20
1.917713413688774
 10
9.333285583176528
 20
1.920422648862374
 10
9.334640200763328
 20
1.921777266449175
 10
9.334640200763328
 20
1.925841119209574
 10
9.334640200763328
 20
1.929904971969975
 10
9.327867112829328
 20
1.929904971969975
 10
9.325157877655727
 20
1.928550354383175
 10
9.325157877655727
 20
1.931259589556774
 10
9.326512495242527
 20
1.932614207143575
 10
9.326512495242527
 20
1.933968824730375
 10
9.323803260068926
 20
1.936678059903975
 10
9.319739407308527
 20
1.940741912664376
 10
9.315675554548127
 20
1.943451147837976
 10
9.311611701787728
 20
1.943451147837976
 10
9.312966319374526
 20
1.947515000598376
 10
9.307547849027326
 20
1.947515000598376
 10
9.304838613853727
 20
1.950224235771976
 10
9.302129378680126
 20
1.954288088532377
 10
9.302129378680126
 20
1.955642706119176
 10
9.298065525919727
 20
1.954288088532377
 10
9.296710908332926
 20
1.952933470945576
 10
9.291292437985726
 20
1.952933470945576
 10
9.289937820398926
 20
1.956997323705977
 10
9.285873967638524
 20
1.954288088532377
 10
9.283164732464925
 20
1.952933470945576
 10
9.279100879704524
 20
1.950224235771976
 10
9.275037026944124
 20
1.950224235771976
 10
9.273682409357324
 20
1.946160383011576
 10
9.269618556596924
 20
1.943451147837976
 10
9.266909321423324
 20
1.942096530251176
 10
9.266909321423324
 20
1.939387295077575
 10
9.264200086249724
 20
1.936678059903975
 10
9.262845468662924
 20
1.935323442317176
 10
9.260136233489323
 20
1.933968824730375
 10
9.260136233489323
 20
1.933968824730375
 10
9.260136233489323
 20
1.933968824730375
  0
LWPOLYLINE
  5
3D84
330
3D59
100
AcDbEntity
  8
TBTEXT
100
AcDbPolyline
 90
       90
 70
     0
 43
0.0027092351736002
 10
9.499903546352938
 20
1.875720268497972
 10
9.498548928766137
 20
1.868947180563972
 10
9.495839693592536
 20
1.862174092629971
 10
9.497194311179337
 20
1.856755622282771
 10
9.494485076005734
 20
1.855401004695971
 10
9.491775840832137
 20
1.85404638710917
 10
9.494485076005734
 20
1.84862791676197
 10
9.493130458418937
 20
1.84185482882797
 10
9.490421223245336
 20
1.83914559365437
 10
9.487711988071736
 20
1.83779097606757
 10
9.485002752898136
 20
1.83779097606757
 10
9.487711988071736
 20
1.83101788813357
 10
9.489066605658534
 20
1.824244800199569
 10
9.489066605658534
 20
1.818826329852369
 10
9.489066605658534
 20
1.813407859505168
 10
9.491775840832137
 20
1.810698624331569
 10
9.493130458418937
 20
1.806634771571168
 10
9.494485076005734
 20
1.801216301223967
 10
9.493130458418937
 20
1.789024742942767
 10
9.493130458418937
 20
1.776833184661566
 10
9.494485076005734
 20
1.763287008793565
 10
9.495839693592536
 20
1.752450068099165
 10
9.498548928766137
 20
1.749740832925565
 10
9.502612781526537
 20
1.745676980165165
 10
9.506676634286938
 20
1.734840039470764
 10
9.506676634286938
 20
1.722648481189563
 10
9.509385869460537
 20
1.719939246015964
 10
9.510740487047338
 20
1.718584628429163
 10
9.513449722220939
 20
1.714520775668763
 10
9.518868192568139
 20
1.711811540495163
 10
9.520222810154939
 20
1.713166158081963
 10
9.522932045328538
 20
1.710456922908362
 10
9.528350515675738
 20
1.707747687734762
 10
9.53241436843614
 20
1.705038452561162
 10
9.536478221196539
 20
1.705038452561162
 10
9.541896691543739
 20
1.705038452561162
 10
9.545960544304139
 20
1.709102305321562
 10
9.55137901465134
 20
1.721293863602763
 10
9.55679748499854
 20
1.733485421883964
 10
9.55950672017214
 20
1.740258509817964
 10
9.55815210258534
 20
1.742967744991564
 10
9.55950672017214
 20
1.745676980165165
 10
9.560861337758938
 20
1.748386215338764
 10
9.564925190519341
 20
1.748386215338764
 10
9.566279808106138
 20
1.748386215338764
 10
9.56763442569294
 20
1.751095450512365
 10
9.56763442569294
 20
1.755159303272765
 10
9.570343660866541
 20
1.755159303272765
 10
9.56898904327974
 20
1.749740832925565
 10
9.56898904327974
 20
1.747031597751965
 10
9.56898904327974
 20
1.742967744991564
 10
9.570343660866541
 20
1.737549274644364
 10
9.571698278453342
 20
1.734840039470764
 10
9.57305289604014
 20
1.733485421883964
 10
9.57305289604014
 20
1.738903892231165
 10
9.57305289604014
 20
1.755159303272765
 10
9.57305289604014
 20
1.767350861553966
 10
9.570343660866541
 20
1.782251655008766
 10
9.56898904327974
 20
1.791733978116368
 10
9.566279808106138
 20
1.799861683637168
 10
9.56357057293254
 20
1.813407859505168
 10
9.55950672017214
 20
1.825599417786369
 10
9.55679748499854
 20
1.833727123307169
 10
9.552733632238139
 20
1.84320944641477
 10
9.547315161890939
 20
1.85404638710917
 10
9.54325130913054
 20
1.864883327803571
 10
9.539187456370138
 20
1.873011033324371
 10
9.535123603609739
 20
1.879784121258372
 10
9.528350515675738
 20
1.887911826779173
 10
9.525641280502139
 20
1.891975679539572
 10
9.522932045328538
 20
1.894684914713173
 10
9.520222810154939
 20
1.898748767473573
 10
9.516158957394538
 20
1.902812620233974
 10
9.517513574981338
 20
1.896039532299973
 10
9.517513574981338
 20
1.893330297126373
 10
9.517513574981338
 20
1.886557209192372
 10
9.518868192568139
 20
1.882493356431973
 10
9.521577427741738
 20
1.879784121258372
 10
9.525641280502139
 20
1.877074886084773
 10
9.525641280502139
 20
1.873011033324371
 10
9.522932045328538
 20
1.870301798150772
 10
9.520222810154939
 20
1.868947180563972
 10
9.516158957394538
 20
1.873011033324371
 10
9.514804339807737
 20
1.867592562977171
 10
9.512095104634138
 20
1.867592562977171
 10
9.508031251873737
 20
1.870301798150772
 10
9.502612781526537
 20
1.874365650911172
 10
9.499903546352938
 20
1.875720268497972
 10
9.499903546352938
 20
1.875720268497972
 10
9.499903546352938
 20
1.875720268497972
  0
LWPOLYLINE
  5
3D85
330
3D59
100
AcDbEntity
  8
TBTEXT
100
AcDbPolyline
 90
       26
 70
     0
 43
0.0027092351736002
 10
9.40237108010333
 20
1.915004178515174
 10
9.40237108010333
 20
1.912294943341573
 10
9.407789550450532
 20
1.910940325754774
 10
9.410498785624132
 20
1.908231090581174
 10
9.413208020797732
 20
1.905521855407573
 10
9.417271873558132
 20
1.905521855407573
 10
9.42269034390533
 20
1.905521855407573
 10
9.424044961492132
 20
1.902812620233974
 10
9.425399579078933
 20
1.898748767473573
 10
9.432172667012933
 20
1.894684914713173
 10
9.433527284599734
 20
1.893330297126373
 10
9.434881902186534
 20
1.890621061952773
 10
9.437591137360133
 20
1.891975679539572
 10
9.441654990120535
 20
1.896039532299973
 10
9.440300372533734
 20
1.901458002647173
 10
9.438945754946934
 20
1.905521855407573
 10
9.434881902186534
 20
1.908231090581174
 10
9.429463431839332
 20
1.908231090581174
 10
9.42269034390533
 20
1.909585708167974
 10
9.418626491144932
 20
1.912294943341573
 10
9.413208020797732
 20
1.915004178515174
 10
9.410498785624132
 20
1.915004178515174
 10
9.405080315276932
 20
1.915004178515174
 10
9.40237108010333
 20
1.915004178515174
 10
9.40237108010333
 20
1.915004178515174
 10
9.40237108010333
 20
1.915004178515174
  0
LWPOLYLINE
  5
3D86
330
3D59
100
AcDbEntity
  8
TBTEXT
100
AcDbPolyline
 90
       14
 70
     0
 43
0.0
 10
9.411853403210932
 20
1.902812620233974
 10
9.413208020797732
 20
1.898748767473573
 10
9.414562638384531
 20
1.894684914713173
 10
9.418626491144932
 20
1.891975679539572
 10
9.419981108731731
 20
1.890621061952773
 10
9.421335726318533
 20
1.889266444365973
 10
9.424044961492132
 20
1.889266444365973
 10
9.425399579078933
 20
1.893330297126373
 10
9.42269034390533
 20
1.897394149886773
 10
9.419981108731731
 20
1.900103385060373
 10
9.417271873558132
 20
1.901458002647173
 10
9.413208020797732
 20
1.902812620233974
 10
9.411853403210932
 20
1.902812620233974
 10
9.411853403210932
 20
1.902812620233974
  0
LWPOLYLINE
  5
3D87
330
3D59
100
AcDbEntity
  8
TBTEXT
100
AcDbPolyline
 90
       12
 70
     0
 43
0.0027092351736002
 10
9.411853403210932
 20
1.902812620233974
 10
9.413208020797732
 20
1.898748767473573
 10
9.414562638384531
 20
1.894684914713173
 10
9.418626491144932
 20
1.891975679539572
 10
9.419981108731731
 20
1.890621061952773
 10
9.421335726318533
 20
1.889266444365973
 10
9.424044961492132
 20
1.889266444365973
 10
9.425399579078933
 20
1.893330297126373
 10
9.42269034390533
 20
1.897394149886773
 10
9.419981108731731
 20
1.900103385060373
 10
9.417271873558132
 20
1.901458002647173
 10
9.413208020797732
 20
1.902812620233974
  0
LWPOLYLINE
  5
3D88
330
3D59
100
AcDbEntity
  8
TBTEXT
100
AcDbPolyline
 90
        6
 70
     0
 43
0.0054184703472003
 10
10.22056010253058
 20
1.706393070147963
 10
10.17721233975297
 20
1.822890182612769
 10
10.13521919456217
 20
1.706393070147963
 10
10.22056010253058
 20
1.706393070147963
 10
10.22056010253058
 20
1.706393070147963
 10
10.22056010253058
 20
1.706393070147963
  0
ENDBLK
  5
3D8A
330
3D59
100
AcDbEntity
  8
0
100
AcDbBlockEnd
  0
ENDSEC
  0
SECTION
  2
ENTITIES
  0
TEXT
  5
3EA
330
17
100
AcDbEntity
  8
5
100
AcDbText
 10
147.3539254966152
 20
31.39637558331119
 30
0.0
 40
0.1975
  1

100
AcDbText
  0
TEXT
  5
3EB
330
17
100
AcDbEntity
  8
5
100
AcDbText
 10
516.3109603491291
 20
101.9597293714296
 30
0.0
 40
4.5
  1

100
AcDbText
  0
TEXT
  5
3EC
330
17
100
AcDbEntity
  8
5
100
AcDbText
 10
323.1587763129943
 20
168.4400107669922
 30
0.0
 40
3.461538461538461
  1

100
AcDbText
  0
TEXT
  5
99A
330
17
100
AcDbEntity
  8
TEXT
100
AcDbText
 10
197.338482925024
 20
10.34387048172698
 30
0.0
 40
1.9008
  1
NOV-23-04
100
AcDbText
  0
LINE
  5
99B
330
17
100
AcDbEntity
  8
FRA
100
AcDbLine
 10
185.7968905665032
 20
20.29401600000006
 30
0.0
 11
246.0000000000002
 21
20.29401600000006
 31
0.0
  0
LINE
  5
99C
330
17
100
AcDbEntity
  8
FRA
100
AcDbLine
 10
185.7968905665032
 20
32.39244759440317
 30
0.0
 11
246.0000000000002
 21
32.39244759440317
 31
0.0
  0
LINE
  5
99D
330
17
100
AcDbEntity
  8
FRA
100
AcDbLine
 10
185.7968905665032
 20
13.14700800000003
 30
0.0
 11
246.0000000000002
 21
13.14700800000003
 31
0.0
  0
LINE
  5
99E
330
17
100
AcDbEntity
  8
FRA
100
AcDbLine
 10
185.7968905665032
 20
9.57350400000007
 30
0.0
 11
246.0000000000002
 21
9.57350400000007
 31
0.0
  0
TEXT
  5
99F
330
17
100
AcDbEntity
  8
TEXT
100
AcDbText
 10
202.7386071655152
 20
14.25746655762564
 30
0.0
 40
1.891320445984693
  1
ABS IMPACT DOOR
 72
     4
 11
215.9328188482179
 21
15.20312678061799
 31
0.0
100
AcDbText
  0
TEXT
  5
9A0
330
17
100
AcDbEntity
  8
TEXT
100
AcDbText
 10
194.2726965977742
 20
17.32171939832407
 30
0.0
 40
1.891320445984693
  1
SERIES 1500 - MODEL 1504
 72
     4
 11
215.9328188482179
 21
18.26737962131642
 31
0.0
100
AcDbText
  0
LWPOLYLINE
  5
9A1
330
17
100
AcDbEntity
  8
FRA
100
AcDbPolyline
 90
        4
 70
     1
 43
0.0
 10
6.000000000000227
 20
6.0
 10
246.0000000000004
 20
6.0
 10
246.0000000000007
 20
185.9999999999999
 10
6.000000000000682
 20
185.9999999999999
  0
LWPOLYLINE
  5
9A2
330
17
100
AcDbEntity
  8
0
100
AcDbPolyline
 90
        4
 70
     1
 43
0.0
 10
252.0000000000004
 20
191.9999999999999
 10
0.0000000000004547
 20
191.9999999999999
 10
0.0
 20
0.0
 10
252.0
 20
0.0
  0
LINE
  5
9AB
330
17
100
AcDbEntity
  8
FRA
100
AcDbLine
 10
185.7968905665032
 20
6.0
 30
0.0
 11
185.7968905665032
 21
32.39244759440317
 31
0.0
  0
TEXT
  5
9AC
330
17
100
AcDbEntity
  8
TBTEXT
100
AcDbText
 10
187.2965338408687
 20
10.3949289799242
 30
0.0
 40
1.786751999999999
  1
DATE:
100
AcDbText
  0
TEXT
  5
9AD
330
17
100
AcDbEntity
  8
TBTEXT
100
AcDbText
 10
187.2965338408687
 20
6.901644798294569
 30
0.0
 40
1.786751999999999
  1
DRAWN:
100
AcDbText
  0
TEXT
  5
9AE
330
17
100
AcDbEntity
  8
TEXT
100
AcDbText
 10
200.2428501305453
 20
6.77036648172691
 30
0.0
 40
1.9008
  1
OC
100
AcDbText
  0
TEXT
  5
9DC
330
17
100
AcDbEntity
  8
TEXT
100
AcDbText
 10
231.6052091132153
 20
6.77036648172691
 30
0.0
 40
1.9008
  1
L1504
100
AcDbText
  0
TEXT
  5
9DD
330
17
100
AcDbEntity
  8
TEXT
100
AcDbText
 10
231.6052091132153
 20
10.34387048172698
 30
0.0
 40
1.9008
  1
1:24
100
AcDbText
  0
TEXT
  5
9DE
330
17
100
AcDbEntity
  8
TBTEXT
100
AcDbText
 10
217.2862459846645
 20
7.270259766425681
 30
0.0
 40
1.786751999999999
  1
DWG NO:
100
AcDbText
  0
TEXT
  5
9DF
330
17
100
AcDbEntity
  8
TBTEXT
100
AcDbText
 10
217.2862459846645
 20
10.76354394805537
 30
0.0
 40
1.786751999999999
  1
SCALE:
100
AcDbText
  0
LINE
  5
9E0
330
17
100
AcDbEntity
  8
FRA
100
AcDbLine
 10
215.6844988870644
 20
13.14700800000003
 30
0.0
 11
215.6844988870644
 21
6.0
 31
0.0
  0
TEXT
  5
111C
330
17
100
AcDbEntity
  8
5
100
AcDbText
 10
263.4244025770822
 20
268.1407713736659
 30
0.0
 40
0.1975
  1

100
AcDbText
  0
TEXT
  5
111D
330
17
100
AcDbEntity
  8
5
100
AcDbText
 10
632.381437429596
 20
338.7041251617843
 30
0.0
 40
4.5
  1

100
AcDbText
  0
TEXT
  5
111E
330
17
100
AcDbEntity
  8
5
100
AcDbText
 10
439.2292533934613
 20
405.184406557347
 30
0.0
 40
3.461538461538461
  1

100
AcDbText
  0
TEXT
  5
2688
330
17
100
AcDbEntity
  8
5
100
AcDbText
 10
399.3539254966152
 20
31.39637558331119
 30
0.0
 40
0.1975
  1

100
AcDbText
  0
TEXT
  5
2689
330
17
100
AcDbEntity
  8
5
100
AcDbText
 10
768.3109603491291
 20
101.9597293714296
 30
0.0
 40
4.5
  1

100
AcDbText
  0
TEXT
  5
268A
330
17
100
AcDbEntity
  8
5
100
AcDbText
 10
575.1587763129943
 20
168.4400107669922
 30
0.0
 40
3.461538461538461
  1

100
AcDbText
  0
TEXT
  5
2792
330
17
100
AcDbEntity
  8
5
100
AcDbText
 10
515.4244025770822
 20
268.1407713736659
 30
0.0
 40
0.1975
  1

100
AcDbText
  0
TEXT
  5
2793
330
17
100
AcDbEntity
  8
5
100
AcDbText
 10
884.3814374295961
 20
338.7041251617843
 30
0.0
 40
4.5
  1

100
AcDbText
  0
TEXT
  5
2794
330
17
100
AcDbEntity
  8
5
100
AcDbText
 10
691.2292533934612
 20
405.184406557347
 30
0.0
 40
3.461538461538461
  1

100
AcDbText
  0
DIMENSION
  5
2EAB
330
17
100
AcDbEntity
  8
DIM
100
AcDbDimension
  2
*D1
 10
18.89640368030459
 20
178.1335412370937
 30
0.0
 11
18.89640368030456
 21
129.238030801706
 31
0.0
 70
   160
  1
OPENING\PHEIGHT\P \P______
  3
STANDARD
100
AcDbAlignedDimension
 13
31.46198676968186
 23
91.2380308016857
 33
0.0
 14
31.46198676968186
 24
178.1335412370937
 34
0.0
 50
90.0
100
AcDbRotatedDimension
1001
ACAD
1000
DSTYLE
1002
{
1070
   287
1070
     0
1070
   287
1070
     0
1070
     3
1000
"
1070
    40
1040
12.0
1070
    42
1040
0.18
1070
   140
1040
0.188
1070
   141
1040
0.19
1070
   146
1040
0.5
1070
   176
1070
   256
1070
   177
1070
   256
1070
   178
1070
    30
1070
   271
1070
     2
1070
   272
1070
     2
1070
   289
1070
     0
1002
}
  0
LINE
  5
2EAC
330
17
100
AcDbEntity
  8
0
100
AcDbLine
 10
31.46198676968186
 20
91.2380308016857
 30
0.0
 11
31.46198676968186
 21
178.1335412370937
 31
0.0
  0
LINE
  5
2EAD
330
17
100
AcDbEntity
  8
0
100
AcDbLine
 10
103.4619867696818
 20
178.1335412370937
 30
0.0
 11
103.4619867696818
 21
91.23803080168562
 31
0.0
  0
LINE
  5
2EAE
330
17
100
AcDbEntity
  8
7
100
AcDbLine
 10
102.9693182739165
 20
91.73803080168562
 30
0.0
 11
102.9693182739165
 21
176.6335412370936
 31
0.0
  0
LINE
  5
2EAF
330
17
100
AcDbEntity
  8
7
100
AcDbLine
 10
102.6965834909933
 20
91.73803080168562
 30
0.0
 11
102.6965834909933
 21
176.6335412370936
 31
0.0
  0
LINE
  5
2EB0
330
17
100
AcDbEntity
  8
7
100
AcDbLine
 10
100.8851894849741
 20
91.73803080168562
 30
0.0
 11
100.8851894849741
 21
176.6335412370936
 31
0.0
  0
LINE
  5
2EB1
330
17
100
AcDbEntity
  8
7
100
AcDbLine
 10
100.1351894849741
 20
91.73803080168562
 30
0.0
 11
100.1351894849741
 21
176.6335412370936
 31
0.0
  0
LWPOLYLINE
  5
2EB2
330
17
100
AcDbEntity
  8
3
100
AcDbPolyline
 90
        6
 70
     0
 43
0.0
 10
100.1351894849741
 20
91.73803080168562
 10
67.8369867696818
 20
91.73803080168562
 10
67.83698676968184
 20
177.6335412370937
 10
96.46198676968197
 20
177.6335412370936
 10
99.96198676968199
 20
176.6335412370937
 10
100.9619867696818
 20
176.6335412370936
  0
LWPOLYLINE
  5
2EB3
330
17
100
AcDbEntity
  8
3
100
AcDbPolyline
 90
        6
 70
     0
 43
0.0
 10
34.78878405438957
 20
91.73803080168562
 10
67.08698676968191
 20
91.73803080168562
 10
67.08698676968186
 20
177.6335412370937
 10
38.46198676968169
 20
177.6335412370936
 10
34.96198676968169
 20
176.6335412370937
 10
33.96198676968186
 20
176.6335412370936
  0
LINE
  5
2EB4
330
17
100
AcDbEntity
  8
7
100
AcDbLine
 10
31.95465526544718
 20
91.73803080168562
 30
0.0
 11
31.95465526544718
 21
176.6335412370936
 31
0.0
  0
LINE
  5
2EB5
330
17
100
AcDbEntity
  8
7
100
AcDbLine
 10
32.22739004837041
 20
91.73803080168562
 30
0.0
 11
32.22739004837041
 21
176.6335412370936
 31
0.0
  0
LINE
  5
2EB6
330
17
100
AcDbEntity
  8
7
100
AcDbLine
 10
34.03878405438957
 20
91.73803080168562
 30
0.0
 11
34.03878405438957
 21
176.6335412370936
 31
0.0
  0
LINE
  5
2EB7
330
17
100
AcDbEntity
  8
7
100
AcDbLine
 10
34.78878405438957
 20
91.73803080168562
 30
0.0
 11
34.78878405438957
 21
176.6335412370936
 31
0.0
  0
DIMENSION
  5
2EBB
330
17
100
AcDbEntity
  8
DIM
100
AcDbDimension
  2
*D0
 10
103.4619867696818
 20
79.65709646321292
 30
0.0
 11
67.46198676968186
 21
79.65709646321292
 31
0.0
 70
    32
  1
OPENING WIDTH ______
  3
STANDARD
100
AcDbAlignedDimension
 13
31.46198676968186
 23
91.2380308016857
 33
0.0
 14
103.4619867696818
 24
91.2380308016857
 34
0.0
100
AcDbRotatedDimension
1001
ACAD
1000
DSTYLE
1002
{
1070
   287
1070
     0
1070
   287
1070
     0
1070
     3
1000
"
1070
    40
1040
12.0
1070
    42
1040
0.18
1070
   140
1040
0.188
1070
   141
1040
0.19
1070
   146
1040
0.5
1070
   176
1070
   256
1070
   177
1070
   256
1070
   178
1070
    30
1070
   271
1070
     2
1070
   272
1070
     2
1070
   289
1070
     0
1002
}
  0
LINE
  5
2EBC
330
17
100
AcDbEntity
  8
0
100
AcDbLine
 10
103.4619867696818
 20
91.23803080168562
 30
0.0
 11
31.46198676968186
 21
91.23803080168565
 31
0.0
  0
CIRCLE
  5
2EBD
330
17
100
AcDbEntity
  8
DIM
100
AcDbCircle
 10
101.7369867696819
 20
92.42803080168568
 30
0.0
 40
4.0
  0
LINE
  5
2EC5
330
17
100
AcDbEntity
  8
6
 62
     4
100
AcDbLine
 10
34.5369867696819
 20
91.2380308016857
 30
0.0
 11
31.46198676968192
 21
91.2380308016857
 31
0.0
  0
LINE
  5
2EC6
330
17
100
AcDbEntity
  8
6
 62
     4
100
AcDbLine
 10
34.4119867696819
 20
91.49803080168567
 30
0.0
 11
31.90977063334094
 21
91.49803080168572
 31
0.0
  0
LINE
  5
2EC7
330
17
100
AcDbEntity
  8
7
100
AcDbLine
 10
31.95465526544718
 20
91.73803080168562
 30
0.0
 11
34.78878405438957
 21
91.73803080168562
 31
0.0
  0
LINE
  5
2EC8
330
17
100
AcDbEntity
  8
6
 62
     4
100
AcDbLine
 10
31.46198676968186
 20
94.23803080168568
 30
0.0
 11
31.46198676968186
 21
91.2380308016857
 31
0.0
  0
LINE
  5
2EC9
330
17
100
AcDbEntity
  8
6
 62
     4
100
AcDbLine
 10
31.78479062975771
 20
91.6207950234463
 30
0.0
 11
31.74030097758458
 21
94.1152665799251
 31
0.0
  0
ARC
  5
2ECA
330
17
100
AcDbEntity
  8
6
 62
     4
100
AcDbCircle
 10
32.43573676968185
 20
91.5292808016855
 30
0.0
 40
0.03125
100
AcDbArc
 50
270.0000000000017
 51
0.0
  0
ARC
  5
2ECB
330
17
100
AcDbEntity
  8
6
 62
     4
100
AcDbCircle
 10
31.90977063334094
 20
91.62303080168573
 30
0.0
 40
0.125
100
AcDbArc
 50
181.0248599063498
 51
270.0
  0
LINE
  5
2ECC
330
17
100
AcDbEntity
  8
6
 62
     4
100
AcDbLine
 10
32.46698676968191
 20
91.52928080168554
 30
0.0
 11
32.46698676968191
 21
91.73803080168562
 31
0.0
  0
LINE
  5
2ECD
330
17
100
AcDbEntity
  8
6
 62
     4
100
AcDbLine
 10
33.90698676968191
 20
91.5292808016855
 30
0.0
 11
33.90698676968191
 21
91.73803080168562
 31
0.0
  0
ARC
  5
2ECE
330
17
100
AcDbEntity
  8
6
 62
     4
100
AcDbCircle
 10
33.93823676968191
 20
91.5292808016855
 30
0.0
 40
0.03125
100
AcDbArc
 50
180.0
 51
269.9999999999983
  0
POINT
  5
2ECF
330
17
100
AcDbEntity
  8
0
  6
BYBLOCK
 62
     7
100
AcDbPoint
 10
33.71948676968191
 20
91.49803080168567
 30
0.0
  0
LINE
  5
2ED0
330
17
100
AcDbEntity
  8
6
 62
     4
100
AcDbLine
 10
31.61532097400135
 20
94.23053080168569
 30
0.0
 11
31.46198676968186
 21
94.23053080168569
 31
0.0
  0
ARC
  5
2ED1
330
17
100
AcDbEntity
  8
6
 62
     4
100
AcDbCircle
 10
31.61532097400135
 20
94.11303080168568
 30
0.0
 40
0.1249999999999964
100
AcDbArc
 50
1.02485990634711
 51
90.0000000000016
  0
ARC
  5
2ED2
330
17
100
AcDbEntity
  8
6
 62
     4
100
AcDbCircle
 10
34.4119867696819
 20
91.37303080168567
 30
0.0
 40
0.125
100
AcDbArc
 50
0.0
 51
89.99999999999876
  0
LINE
  5
2ED3
330
17
100
AcDbEntity
  8
6
 62
     4
100
AcDbLine
 10
34.5369867696819
 20
91.37303080168567
 30
0.0
 11
34.5369867696819
 21
91.2380308016857
 31
0.0
  0
POINT
  5
2ED4
330
17
100
AcDbEntity
  8
6
  6
BYBLOCK
 62
     4
100
AcDbPoint
 10
34.5369867696819
 20
91.2380308016857
 30
0.0
  0
CIRCLE
  5
2ED5
330
17
100
AcDbEntity
  8
7
100
AcDbCircle
 10
34.41378405438957
 20
92.73803080168562
 30
0.0
 40
0.2535
  0
CIRCLE
  5
2ED6
330
17
100
AcDbEntity
  8
7
100
AcDbCircle
 10
34.41378405438957
 20
92.73803080168562
 30
0.0
 40
0.1875
  0
CIRCLE
  5
2ED7
330
17
100
AcDbEntity
  8
7
100
AcDbCircle
 10
34.41378405438957
 20
102.9602530239078
 30
0.0
 40
0.1875
  0
CIRCLE
  5
2ED8
330
17
100
AcDbEntity
  8
7
100
AcDbCircle
 10
34.41378405438957
 20
102.9602530239078
 30
0.0
 40
0.2535
  0
SOLID
  5
2EE0
330
17
100
AcDbEntity
  8
DIM
100
AcDbTrace
 10
107.8969867696819
 20
92.06803080168567
 30
0.0
 11
107.8969867696819
 21
92.7880308016857
 31
0.0
 12
105.7369867696819
 22
92.42803080168568
 32
0.0
 13
105.7369867696819
 23
92.42803080168568
 33
0.0
  0
LINE
  5
2EE1
330
17
100
AcDbEntity
  8
7
100
AcDbLine
 10
102.9693182739165
 20
91.73803080168562
 30
0.0
 11
100.1351894849741
 21
91.73803080168562
 31
0.0
  0
LINE
  5
2EE2
330
17
100
AcDbEntity
  8
6
 62
     4
100
AcDbLine
 10
100.3869867696818
 20
91.2380308016857
 30
0.0
 11
103.4619867696818
 21
91.2380308016857
 31
0.0
  0
LINE
  5
2EE3
330
17
100
AcDbEntity
  8
6
 62
     4
100
AcDbLine
 10
100.5119867696818
 20
91.49803080168567
 30
0.0
 11
103.0142029060227
 21
91.49803080168572
 31
0.0
  0
ARC
  5
2EE4
330
17
100
AcDbEntity
  8
6
 62
     4
100
AcDbCircle
 10
100.5119867696818
 20
91.37303080168567
 30
0.0
 40
0.125
100
AcDbArc
 50
90.00000000000122
 51
180.0
  0
CIRCLE
  5
2EE5
330
17
100
AcDbEntity
  8
7
100
AcDbCircle
 10
100.5101894849741
 20
92.73803080168562
 30
0.0
 40
0.2535
  0
CIRCLE
  5
2EE6
330
17
100
AcDbEntity
  8
7
100
AcDbCircle
 10
100.5101894849741
 20
92.73803080168562
 30
0.0
 40
0.1875
  0
LINE
  5
2EE7
330
17
100
AcDbEntity
  8
6
 62
     4
100
AcDbLine
 10
100.3869867696818
 20
91.37303080168567
 30
0.0
 11
100.3869867696818
 21
91.2380308016857
 31
0.0
  0
POINT
  5
2EE8
330
17
100
AcDbEntity
  8
6
  6
BYBLOCK
 62
     4
100
AcDbPoint
 10
100.3869867696818
 20
91.2380308016857
 30
0.0
  0
ARC
  5
2EE9
330
17
100
AcDbEntity
  8
6
 62
     4
100
AcDbCircle
 10
100.9857367696818
 20
91.5292808016855
 30
0.0
 40
0.03125
100
AcDbArc
 50
270.0000000000017
 51
0.0
  0
POINT
  5
2EEA
330
17
100
AcDbEntity
  8
0
  6
BYBLOCK
 62
     7
100
AcDbPoint
 10
101.2044867696818
 20
91.49803080168567
 30
0.0
  0
LINE
  5
2EEB
330
17
100
AcDbEntity
  8
6
 62
     4
100
AcDbLine
 10
101.0169867696818
 20
91.5292808016855
 30
0.0
 11
101.0169867696818
 21
91.73803080168562
 31
0.0
  0
ARC
  5
2EEC
330
17
100
AcDbEntity
  8
6
 62
     4
100
AcDbCircle
 10
102.4882367696818
 20
91.5292808016855
 30
0.0
 40
0.03125
100
AcDbArc
 50
180.0
 51
269.9999999999983
  0
LINE
  5
2EED
330
17
100
AcDbEntity
  8
6
 62
     4
100
AcDbLine
 10
102.4569867696818
 20
91.52928080168554
 30
0.0
 11
102.4569867696818
 21
91.73803080168562
 31
0.0
  0
LINE
  5
2EEE
330
17
100
AcDbEntity
  8
6
 62
     4
100
AcDbLine
 10
103.4619867696818
 20
94.23803080168568
 30
0.0
 11
103.4619867696818
 21
91.2380308016857
 31
0.0
  0
LINE
  5
2EEF
330
17
100
AcDbEntity
  8
6
 62
     4
100
AcDbLine
 10
103.139182909606
 20
91.6207950234463
 30
0.0
 11
103.1836725617791
 21
94.1152665799251
 31
0.0
  0
ARC
  5
2EF0
330
17
100
AcDbEntity
  8
6
 62
     4
100
AcDbCircle
 10
103.0142029060227
 20
91.62303080168573
 30
0.0
 40
0.125
100
AcDbArc
 50
270.0
 51
358.9751400936502
  0
ARC
  5
2EF1
330
17
100
AcDbEntity
  8
6
 62
     4
100
AcDbCircle
 10
103.3086525653623
 20
94.11303080168568
 30
0.0
 40
0.1249999999999964
100
AcDbArc
 50
89.99999999999837
 51
178.9751400936529
  0
LINE
  5
2EF2
330
17
100
AcDbEntity
  8
6
 62
     4
100
AcDbLine
 10
103.3086525653623
 20
94.23053080168569
 30
0.0
 11
103.4619867696818
 21
94.23053080168569
 31
0.0
  0
CIRCLE
  5
2EF3
330
17
100
AcDbEntity
  8
DIM
100
AcDbCircle
 10
113.9534096964886
 20
92.42802810886525
 30
0.0
 40
2.358526940075286
  0
LINE
  5
2EF4
330
17
100
AcDbEntity
  8
DIM
100
AcDbLine
 10
107.8969867696819
 20
92.42803080168568
 30
0.0
 11
111.5948827564133
 21
92.42802810886525
 31
0.0
  0
TEXT
  5
2EF5
330
17
100
AcDbEntity
  8
DIM
 62
    30
100
AcDbText
 10
112.9339854667559
 20
91.30002810886525
 30
0.0
 40
2.256
  1
2
 11
112.9339854667559
 21
92.42802810886525
 31
0.0
100
AcDbText
 73
     2
  0
CIRCLE
  5
2EF6
330
17
100
AcDbEntity
  8
7
100
AcDbCircle
 10
100.5101894849741
 20
102.9602530239078
 30
0.0
 40
0.2535
  0
CIRCLE
  5
2EF7
330
17
100
AcDbEntity
  8
7
100
AcDbCircle
 10
100.5101894849741
 20
102.9602530239078
 30
0.0
 40
0.1875
  0
LINE
  5
2F03
102
{ACAD_REACTORS
330
304D
102
}
330
17
100
AcDbEntity
  8
DIM
100
AcDbLine
 10
79.72491352825745
 20
151.3930446223665
 30
0.0
 11
111.5948908348745
 21
151.393041929546
 31
0.0
  0
LINE
  5
2F04
330
17
100
AcDbEntity
  8
DIM
100
AcDbLine
 10
93.24657198597355
 20
134.9997406684137
 30
0.0
 11
111.5949418301611
 21
134.9997379755933
 31
0.0
  0
LINE
  5
2F05
330
17
100
AcDbEntity
  8
0
100
AcDbLine
 10
31.46198676968186
 20
178.1335412370937
 30
0.0
 11
103.4619867696818
 21
178.1335412370937
 31
0.0
  0
CIRCLE
  5
2F06
330
17
100
AcDbEntity
  8
DIM
100
AcDbCircle
 10
100.7369867696819
 20
175.9435412370936
 30
0.0
 40
5.0
  0
LWPOLYLINE
  5
2F07
102
{ACAD_REACTORS
330
304D
102
}
330
17
100
AcDbEntity
  8
3
100
AcDbPolyline
 90
        8
 70
     1
 43
0.0
 10
53.46198676968191
 20
146.6130308016856
 10
53.46198676968191
 20
155.6130308016856
 42
-0.4142135623730951
 10
55.71198676968191
 20
157.8630308016855
 10
59.71198676968185
 20
157.8630308016855
 42
-0.4142135623730951
 10
61.96198676968186
 20
155.6130308016856
 10
61.96198676968186
 20
146.6130308016856
 42
-0.4142135623730951
 10
59.71198676968185
 20
144.3630308016856
 10
55.71198676968191
 20
144.3630308016856
 42
-0.4142135623730951
  0
LWPOLYLINE
  5
2F08
102
{ACAD_REACTORS
330
304D
102
}
330
17
100
AcDbEntity
  8
3
100
AcDbPolyline
 90
        8
 70
     1
 43
0.0
 10
52.46198676968191
 20
146.6130308016856
 10
52.46198676968191
 20
155.6130308016856
 42
-0.4142135623730951
 10
55.71198676968191
 20
158.8630308016855
 10
59.71198676968185
 20
158.8630308016855
 42
-0.4142135623730951
 10
62.96198676968185
 20
155.6130308016856
 10
62.96198676968185
 20
146.6130308016856
 42
-0.4142135623730951
 10
59.71198676968185
 20
143.3630308016856
 10
55.71198676968191
 20
143.3630308016856
 42
-0.4142135623730951
  0
CIRCLE
  5
2F09
330
17
100
AcDbEntity
  8
7
100
AcDbCircle
 10
34.41378405438957
 20
113.18247524613
 30
0.0
 40
0.1875
  0
CIRCLE
  5
2F0A
330
17
100
AcDbEntity
  8
7
100
AcDbCircle
 10
34.41378405438957
 20
113.18247524613
 30
0.0
 40
0.2535
  0
CIRCLE
  5
2F0B
330
17
100
AcDbEntity
  8
7
100
AcDbCircle
 10
34.41378405438957
 20
123.4046974683522
 30
0.0
 40
0.1875
  0
CIRCLE
  5
2F0C
330
17
100
AcDbEntity
  8
7
100
AcDbCircle
 10
34.41378405438957
 20
123.4046974683522
 30
0.0
 40
0.2535
  0
CIRCLE
  5
2F0D
330
17
100
AcDbEntity
  8
7
100
AcDbCircle
 10
34.41378405438957
 20
133.6269196905744
 30
0.0
 40
0.1875
  0
CIRCLE
  5
2F0E
330
17
100
AcDbEntity
  8
7
100
AcDbCircle
 10
34.41378405438957
 20
133.6269196905744
 30
0.0
 40
0.2535
  0
CIRCLE
  5
2F0F
330
17
100
AcDbEntity
  8
7
100
AcDbCircle
 10
34.41378405438957
 20
143.8491419127966
 30
0.0
 40
0.1875
  0
CIRCLE
  5
2F10
330
17
100
AcDbEntity
  8
7
100
AcDbCircle
 10
34.41378405438957
 20
143.8491419127966
 30
0.0
 40
0.2535
  0
CIRCLE
  5
2F11
330
17
100
AcDbEntity
  8
7
100
AcDbCircle
 10
34.41378405438957
 20
154.0713641350189
 30
0.0
 40
0.1875
  0
CIRCLE
  5
2F12
330
17
100
AcDbEntity
  8
7
100
AcDbCircle
 10
34.41378405438957
 20
154.0713641350189
 30
0.0
 40
0.2535
  0
CIRCLE
  5
2F13
330
17
100
AcDbEntity
  8
7
100
AcDbCircle
 10
34.41378405438957
 20
164.2935863572411
 30
0.0
 40
0.1875
  0
CIRCLE
  5
2F14
330
17
100
AcDbEntity
  8
7
100
AcDbCircle
 10
34.41378405438957
 20
164.2935863572411
 30
0.0
 40
0.2535
  0
POINT
  5
2F15
330
17
100
AcDbEntity
  8
DEFPOINTS
  6
BYBLOCK
 62
     0
100
AcDbPoint
 10
55.71198676968191
 20
144.3630308016855
 30
0.0
  0
POINT
  5
2F16
330
17
100
AcDbEntity
  8
DEFPOINTS
  6
BYBLOCK
 62
     0
100
AcDbPoint
 10
55.71198676968191
 20
157.8630308016855
 30
0.0
  0
SOLID
  5
2F17
330
17
100
AcDbEntity
  8
DIM
100
AcDbTrace
 10
93.24657198597355
 20
134.6397406684137
 30
0.0
 11
93.24657198597355
 21
135.3597406684137
 31
0.0
 12
91.08657198597346
 22
134.9997406684137
 32
0.0
 13
91.08657198597346
 23
134.9997406684137
 33
0.0
  0
SOLID
  5
2F18
330
17
100
AcDbEntity
  8
DIM
100
AcDbTrace
 10
79.72491352825745
 20
151.0330446223665
 30
0.0
 11
79.72491352825745
 21
151.7530446223665
 31
0.0
 12
77.56491352825742
 22
151.3930446223665
 32
0.0
 13
77.56491352825742
 23
151.3930446223665
 33
0.0
  0
LWPOLYLINE
  5
2F19
102
{ACAD_REACTORS
330
304D
102
}
330
17
100
AcDbEntity
  8
3
100
AcDbPolyline
 90
        8
 70
     1
 43
0.0
 10
81.46198676968181
 20
146.6130308016856
 10
81.46198676968181
 20
155.6130308016856
 42
0.4142135623730951
 10
79.2119867696818
 20
157.8630308016855
 10
75.2119867696818
 20
157.8630308016855
 42
0.4142135623730951
 10
72.9619867696818
 20
155.6130308016856
 10
72.9619867696818
 20
146.6130308016856
 42
0.4142135623730951
 10
75.2119867696818
 20
144.3630308016856
 10
79.2119867696818
 20
144.3630308016856
 42
0.4142135623730951
  0
LWPOLYLINE
  5
2F1A
102
{ACAD_REACTORS
330
304D
102
}
330
17
100
AcDbEntity
  8
3
100
AcDbPolyline
 90
        8
 70
     1
 43
0.0
 10
82.4619867696818
 20
146.6130308016856
 10
82.4619867696818
 20
155.6130308016856
 42
0.4142135623730951
 10
79.2119867696818
 20
158.8630308016855
 10
75.2119867696818
 20
158.8630308016855
 42
0.4142135623730951
 10
71.9619867696818
 20
155.6130308016856
 10
71.9619867696818
 20
146.6130308016856
 42
0.4142135623730951
 10
75.2119867696818
 20
143.3630308016856
 10
79.2119867696818
 20
143.3630308016856
 42
0.4142135623730951
  0
LINE
  5
2F1B
330
17
100
AcDbEntity
  8
6
 62
     4
100
AcDbLine
 10
33.9069867696818
 20
177.8422912370937
 30
0.0
 11
33.90698676968185
 21
176.6335412370936
 31
0.0
  0
LINE
  5
2F1C
330
17
100
AcDbEntity
  8
6
 62
     4
100
AcDbLine
 10
31.46198676968186
 20
175.1410412370936
 30
0.0
 11
31.46198676968186
 21
178.1335412370937
 31
0.0
  0
LINE
  5
2F1D
330
17
100
AcDbEntity
  8
6
 62
     4
100
AcDbLine
 10
31.78479062975771
 20
177.750777015333
 30
0.0
 11
31.73920290762254
 21
175.2024233479739
 31
0.0
  0
LINE
  5
2F1E
330
17
100
AcDbEntity
  8
6
 62
     4
100
AcDbLine
 10
32.46698676968191
 20
177.8422912370937
 30
0.0
 11
32.46698676968191
 21
176.6335412370936
 31
0.0
  0
LINE
  5
2F21
330
17
100
AcDbEntity
  8
7
100
AcDbLine
 10
31.95465526544718
 20
176.6335412370936
 30
0.0
 11
34.78878405438957
 21
176.6335412370936
 31
0.0
  0
LINE
  5
2F22
330
17
100
AcDbEntity
  8
6
 62
     4
100
AcDbLine
 10
31.67671290583093
 20
175.1410412370936
 30
0.0
 11
31.46198676968186
 21
175.1410412370936
 31
0.0
  0
ARC
  5
2F23
330
17
100
AcDbEntity
  8
6
 62
     4
100
AcDbCircle
 10
31.67671290583093
 20
175.2035412370936
 30
0.0
 40
0.0625
100
AcDbArc
 50
270.0
 51
358.9751400936511
  0
CIRCLE
  5
2F24
330
17
100
AcDbEntity
  8
7
100
AcDbCircle
 10
34.41378405438957
 20
175.6335412370936
 30
0.0
 40
0.1875
  0
CIRCLE
  5
2F25
330
17
100
AcDbEntity
  8
7
100
AcDbCircle
 10
34.41378405438957
 20
175.6335412370936
 30
0.0
 40
0.2535
  0
LINE
  5
2F26
330
17
100
AcDbEntity
  8
6
 62
     4
100
AcDbLine
 10
34.4744867696819
 20
177.8735412370937
 30
0.0
 11
31.90977063334094
 21
177.8735412370936
 31
0.0
  0
LINE
  5
2F27
330
17
100
AcDbEntity
  8
6
 62
     4
100
AcDbLine
 10
34.5369867696819
 20
178.1335412370937
 30
0.0
 11
31.46198676968192
 21
178.1335412370937
 31
0.0
  0
ARC
  5
2F28
330
17
100
AcDbEntity
  8
6
 62
     4
100
AcDbCircle
 10
33.93823676968179
 20
177.8422912370937
 30
0.0
 40
0.03125
100
AcDbArc
 50
90.0
 51
179.9999999999988
  0
POINT
  5
2F29
330
17
100
AcDbEntity
  8
DEFPOINTS
  6
BYBLOCK
 62
     0
100
AcDbPoint
 10
33.71948676968191
 20
177.8735412370937
 30
0.0
  0
ARC
  5
2F2A
330
17
100
AcDbEntity
  8
6
 62
     4
100
AcDbCircle
 10
32.43573676968191
 20
177.8422912370937
 30
0.0
 40
0.03125
100
AcDbArc
 50
0.000000000001199
 51
90.0
  0
ARC
  5
2F2B
330
17
100
AcDbEntity
  8
6
 62
     4
100
AcDbCircle
 10
31.90977063334094
 20
177.7485412370936
 30
0.0
 40
0.125
100
AcDbArc
 50
90.0
 51
178.9751400936502
  0
LINE
  5
2F2C
330
17
100
AcDbEntity
  8
6
 62
     4
100
AcDbLine
 10
34.5369867696819
 20
177.9360412370937
 30
0.0
 11
34.5369867696819
 21
178.1335412370937
 31
0.0
  0
POINT
  5
2F2D
330
17
100
AcDbEntity
  8
DEFPOINTS
  6
BYBLOCK
 62
     0
100
AcDbPoint
 10
34.5369867696819
 20
178.1335412370937
 30
0.0
  0
ARC
  5
2F2E
330
17
100
AcDbEntity
  8
6
 62
     4
100
AcDbCircle
 10
34.4744867696819
 20
177.9360412370937
 30
0.0
 40
0.0625
100
AcDbArc
 50
270.0000000000012
 51
0.0
  0
CIRCLE
  5
2F2F
330
17
100
AcDbEntity
  8
7
100
AcDbCircle
 10
100.5101894849741
 20
113.18247524613
 30
0.0
 40
0.1875
  0
CIRCLE
  5
2F30
330
17
100
AcDbEntity
  8
7
100
AcDbCircle
 10
100.5101894849741
 20
113.18247524613
 30
0.0
 40
0.2535
  0
CIRCLE
  5
2F31
330
17
100
AcDbEntity
  8
7
100
AcDbCircle
 10
100.5101894849741
 20
123.4046974683522
 30
0.0
 40
0.1875
  0
CIRCLE
  5
2F32
330
17
100
AcDbEntity
  8
7
100
AcDbCircle
 10
100.5101894849741
 20
123.4046974683522
 30
0.0
 40
0.2535
  0
CIRCLE
  5
2F33
330
17
100
AcDbEntity
  8
7
100
AcDbCircle
 10
100.5101894849741
 20
133.6269196905744
 30
0.0
 40
0.1875
  0
CIRCLE
  5
2F34
330
17
100
AcDbEntity
  8
7
100
AcDbCircle
 10
100.5101894849741
 20
133.6269196905744
 30
0.0
 40
0.2535
  0
TEXT
  5
2F35
330
17
100
AcDbEntity
  8
DIM
 62
    30
100
AcDbText
 10
113.1840445405037
 20
133.8717379755933
 30
0.0
 40
2.256
  1
5
 11
113.1840445405037
 21
134.9997379755933
 31
0.0
100
AcDbText
 73
     2
  0
CIRCLE
  5
2F36
330
17
100
AcDbEntity
  8
DIM
100
AcDbCircle
 10
113.9534687702364
 20
134.9997379755933
 30
0.0
 40
2.358526940075286
  0
CIRCLE
  5
2F37
330
17
100
AcDbEntity
  8
7
100
AcDbCircle
 10
100.5101894849741
 20
143.8491419127966
 30
0.0
 40
0.1875
  0
CIRCLE
  5
2F38
330
17
100
AcDbEntity
  8
7
100
AcDbCircle
 10
100.5101894849741
 20
143.8491419127966
 30
0.0
 40
0.2535
  0
CIRCLE
  5
2F39
330
17
100
AcDbEntity
  8
7
100
AcDbCircle
 10
100.5101894849741
 20
154.0713641350189
 30
0.0
 40
0.1875
  0
CIRCLE
  5
2F3A
330
17
100
AcDbEntity
  8
7
100
AcDbCircle
 10
100.5101894849741
 20
154.0713641350189
 30
0.0
 40
0.2535
  0
CIRCLE
  5
2F3B
330
17
100
AcDbEntity
  8
DIM
100
AcDbCircle
 10
113.9534177749498
 20
151.393041929546
 30
0.0
 40
2.358526940075286
  0
TEXT
  5
2F3C
330
17
100
AcDbEntity
  8
DIM
 62
    30
100
AcDbText
 10
112.9339935452174
 20
150.2650415929434
 30
0.0
 40
2.256
  1
4
 11
112.9339935452174
 21
151.3930415929435
 31
0.0
100
AcDbText
 73
     2
  0
LINE
  5
2F3D
330
17
100
AcDbEntity
  8
DIM
100
AcDbLine
 10
104.7469877604293
 20
167.494157887017
 30
0.0
 11
111.7198837471607
 21
167.4941551941966
 31
0.0
  0
CIRCLE
  5
2F3E
330
17
100
AcDbEntity
  8
7
100
AcDbCircle
 10
100.5101894849741
 20
164.2935863572411
 30
0.0
 40
0.1875
  0
CIRCLE
  5
2F3F
330
17
100
AcDbEntity
  8
7
100
AcDbCircle
 10
100.5101894849741
 20
164.2935863572411
 30
0.0
 40
0.2535
  0
SOLID
  5
2F40
330
17
100
AcDbEntity
  8
DIM
100
AcDbTrace
 10
104.7469877604293
 20
167.134157887017
 30
0.0
 11
104.7469877604293
 21
167.854157887017
 31
0.0
 12
102.5869877604292
 22
167.494157887017
 32
0.0
 13
102.5869877604292
 23
167.494157887017
 33
0.0
  0
CIRCLE
  5
2F41
330
17
100
AcDbEntity
  8
DIM
100
AcDbCircle
 10
114.078410687236
 20
167.4941551941966
 30
0.0
 40
2.358526940075286
  0
TEXT
  5
2F42
330
17
100
AcDbEntity
  8
DIM
 62
    30
100
AcDbText
 10
113.0589864575033
 20
166.3661551941966
 30
0.0
 40
2.256
  1
3
 11
113.0589864575033
 21
167.4941551941966
 31
0.0
100
AcDbText
 73
     2
  0
CIRCLE
  5
2F43
330
17
100
AcDbEntity
  8
DIM
100
AcDbCircle
 10
113.9534096964886
 20
175.9435385442732
 30
0.0
 40
2.358526940075286
  0
LINE
  5
2F44
330
17
100
AcDbEntity
  8
6
 62
     4
100
AcDbLine
 10
101.0169867696819
 20
177.8422912370937
 30
0.0
 11
101.0169867696818
 21
176.6335412370936
 31
0.0
  0
LINE
  5
2F45
330
17
100
AcDbEntity
  8
6
 62
     4
100
AcDbLine
 10
102.4569867696818
 20
177.8422912370937
 30
0.0
 11
102.4569867696818
 21
176.6335412370936
 31
0.0
  0
LINE
  5
2F46
330
17
100
AcDbEntity
  8
6
 62
     4
100
AcDbLine
 10
103.4619867696818
 20
175.1410412370936
 30
0.0
 11
103.4619867696818
 21
178.1335412370937
 31
0.0
  0
LINE
  5
2F47
330
17
100
AcDbEntity
  8
6
 62
     4
100
AcDbLine
 10
103.139182909606
 20
177.750777015333
 30
0.0
 11
103.1847706317412
 21
175.2024233479739
 31
0.0
  0
SOLID
  5
2F48
330
17
100
AcDbEntity
  8
DIM
100
AcDbTrace
 10
107.8969867696819
 20
175.5835412370936
 30
0.0
 11
107.8969867696819
 21
176.3035412370936
 31
0.0
 12
105.7369867696819
 22
175.9435412370936
 32
0.0
 13
105.7369867696819
 23
175.9435412370936
 33
0.0
  0
LINE
  5
2F4B
330
17
100
AcDbEntity
  8
7
100
AcDbLine
 10
102.9693182739165
 20
176.6335412370936
 30
0.0
 11
100.1351894849741
 21
176.6335412370936
 31
0.0
  0
CIRCLE
  5
2F4C
330
17
100
AcDbEntity
  8
7
100
AcDbCircle
 10
100.5101894849741
 20
175.6335412370936
 30
0.0
 40
0.1875
  0
CIRCLE
  5
2F4D
330
17
100
AcDbEntity
  8
7
100
AcDbCircle
 10
100.5101894849741
 20
175.6335412370936
 30
0.0
 40
0.2535
  0
ARC
  5
2F4E
330
17
100
AcDbEntity
  8
6
 62
     4
100
AcDbCircle
 10
103.2472606335328
 20
175.2035412370936
 30
0.0
 40
0.0625
100
AcDbArc
 50
181.0248599063489
 51
270.0
  0
LINE
  5
2F4F
330
17
100
AcDbEntity
  8
6
 62
     4
100
AcDbLine
 10
103.2472606335328
 20
175.1410412370936
 30
0.0
 11
103.4619867696818
 21
175.1410412370936
 31
0.0
  0
LINE
  5
2F50
330
17
100
AcDbEntity
  8
DIM
100
AcDbLine
 10
107.8969867696819
 20
175.9435412370936
 30
0.0
 11
111.5948827564133
 21
175.9435385442732
 31
0.0
  0
TEXT
  5
2F51
330
17
100
AcDbEntity
  8
DIM
 62
    30
100
AcDbText
 10
113.4339854667558
 20
174.8155385442732
 30
0.0
 40
2.256
  1
1
 11
113.4339854667558
 21
175.9435385442732
 31
0.0
100
AcDbText
 73
     2
  0
LINE
  5
2F52
330
17
100
AcDbEntity
  8
6
 62
     4
100
AcDbLine
 10
100.4494867696818
 20
177.8735412370937
 30
0.0
 11
103.0142029060227
 21
177.8735412370936
 31
0.0
  0
LINE
  5
2F53
330
17
100
AcDbEntity
  8
6
 62
     4
100
AcDbLine
 10
100.3869867696818
 20
178.1335412370937
 30
0.0
 11
103.4619867696818
 21
178.1335412370937
 31
0.0
  0
LINE
  5
2F54
330
17
100
AcDbEntity
  8
6
 62
     4
100
AcDbLine
 10
100.3869867696818
 20
177.9360412370937
 30
0.0
 11
100.3869867696818
 21
178.1335412370937
 31
0.0
  0
ARC
  5
2F55
330
17
100
AcDbEntity
  8
6
 62
     4
100
AcDbCircle
 10
100.4494867696818
 20
177.9360412370937
 30
0.0
 40
0.0625
100
AcDbArc
 50
180.0
 51
269.9999999999988
  0
POINT
  5
2F56
330
17
100
AcDbEntity
  8
DEFPOINTS
  6
BYBLOCK
 62
     0
100
AcDbPoint
 10
100.3869867696818
 20
178.1335412370937
 30
0.0
  0
POINT
  5
2F57
330
17
100
AcDbEntity
  8
DEFPOINTS
  6
BYBLOCK
 62
     0
100
AcDbPoint
 10
101.2044867696818
 20
177.8735412370937
 30
0.0
  0
ARC
  5
2F58
330
17
100
AcDbEntity
  8
6
 62
     4
100
AcDbCircle
 10
100.9857367696819
 20
177.8422912370937
 30
0.0
 40
0.03125
100
AcDbArc
 50
0.0000000000011959
 51
90.0
  0
ARC
  5
2F59
330
17
100
AcDbEntity
  8
6
 62
     4
100
AcDbCircle
 10
102.4882367696818
 20
177.8422912370937
 30
0.0
 40
0.03125
100
AcDbArc
 50
90.0
 51
179.9999999999988
  0
ARC
  5
2F5A
330
17
100
AcDbEntity
  8
6
 62
     4
100
AcDbCircle
 10
103.0142029060227
 20
177.7485412370936
 30
0.0
 40
0.125
100
AcDbArc
 50
1.024859906349807
 51
90.0
  0
TEXT
  5
2F5B
330
17
100
AcDbEntity
  8
TEXT
100
AcDbText
 10
15.41791922227882
 20
23.13029838148307
 30
0.0
 40
1.85540461056
  1
5 - 1/4" THICK ABS  DOOR BODY
100
AcDbText
  0
TEXT
  5
2F5C
330
17
100
AcDbEntity
  8
TEXT
100
AcDbText
 10
15.41791922227882
 20
28.11883794328835
 30
0.0
 40
1.85540461056
  1
4 - 9" WIDE x 14" HIGH CLEAR SAFETY ACRYLIC WINDOW
100
AcDbText
  0
TEXT
  5
2F5D
330
17
100
AcDbEntity
  8
TEXT
100
AcDbText
 10
15.75183513795629
 20
43.01291419916252
 30
0.0
 40
1.85540461056
  1
1 - TOP HINGE ASSEMBLY
100
AcDbText
  0
TEXT
  5
2F5E
330
17
100
AcDbEntity
  8
TEXT
100
AcDbText
 10
15.41789902612565
 20
33.13029838146267
 30
0.0
 40
1.85540461056
  1
3 - ANODIZED ALUMINUM FRAME PROFILE
100
AcDbText
  0
TEXT
  5
2F5F
330
17
100
AcDbEntity
  8
TEXT
100
AcDbText
 10
15.41789902612565
 20
38.11883794326795
 30
0.0
 40
1.85540461056
  1
2 - BOTTOM HINGE ASSEMBLY
100
AcDbText
  0
HATCH
  5
304D
330
17
100
AcDbEntity
  8
HATCH
100
AcDbHatch
 10
0.0
 20
0.0
 30
0.0
210
0.0
220
0.0
230
1.0
  2
ANSI31
 70
     0
 71
     1
 91
        3
 92
        7
 72
     1
 73
     1
 93
       20
 10
79.2119867696818
 20
157.8630308016855
 42
-0.4142135623730951
 10
81.46198676968181
 20
155.6130308016856
 42
0.0
 10
81.46198676968181
 20
151.3930444755942
 42
0.0
 10
82.4619867696818
 20
151.3930443911003
 42
0.0
 10
82.4619867696818
 20
155.6130308016856
 42
0.4142135623730951
 10
79.2119867696818
 20
158.8630308016855
 42
0.0
 10
75.2119867696818
 20
158.8630308016855
 42
0.4142135623730951
 10
71.9619867696818
 20
155.6130308016856
 42
0.0
 10
71.9619867696818
 20
146.6130308016856
 42
0.4142135623730951
 10
75.2119867696818
 20
143.3630308016856
 42
0.0
 10
79.2119867696818
 20
143.3630308016856
 42
0.4142135623730951
 10
82.4619867696818
 20
146.6130308016856
 42
0.0
 10
82.4619867696818
 20
151.3930443911003
 42
0.0
 10
81.46198676968181
 20
151.3930444755942
 42
0.0
 10
81.46198676968181
 20
146.6130308016856
 42
-0.4142135623730951
 10
79.2119867696818
 20
144.3630308016856
 42
0.0
 10
75.2119867696818
 20
144.3630308016856
 42
-0.4142135623730951
 10
72.9619867696818
 20
146.6130308016856
 42
0.0
 10
72.9619867696818
 20
155.6130308016856
 42
-0.4142135623730951
 10
75.2119867696818
 20
157.8630308016855
 42
0.0
 97
        3
330
2F1A
330
2F03
330
2F19
 92
        7
 72
     1
 73
     1
 93
        8
 10
55.71198676968176
 20
158.8630308016855
 42
0.4142135623730811
 10
52.46198676968191
 20
155.6130308016856
 42
0.0
 10
52.46198676968191
 20
146.6130308016856
 42
0.4142135623730951
 10
55.71198676968191
 20
143.3630308016856
 42
0.0
 10
59.71198676968185
 20
143.3630308016856
 42
0.4142135623730951
 10
62.96198676968185
 20
146.6130308016856
 42
0.0
 10
62.96198676968185
 20
155.6130308016856
 42
0.4142135623730951
 10
59.71198676968185
 20
158.8630308016855
 42
0.0
 97
        1
330
2F08
 92
       22
 72
     1
 73
     1
 93
        8
 10
59.71198676968188
 20
157.8630308016855
 42
-0.4142135623730924
 10
61.96198676968186
 20
155.6130308016856
 42
0.0
 10
61.96198676968186
 20
146.6130308016856
 42
-0.4142135623730951
 10
59.71198676968185
 20
144.3630308016856
 42
0.0
 10
55.71198676968191
 20
144.3630308016856
 42
-0.4142135623730951
 10
53.46198676968191
 20
146.6130308016856
 42
0.0
 10
53.46198676968191
 20
155.6130308016856
 42
-0.4142135623730951
 10
55.71198676968191
 20
157.8630308016855
 42
0.0
 97
        1
330
2F07
 75
     0
 76
     1
 52
0.0
 41
1.0
 77
     0
 78
     1
 53
45.0
 43
0.0
 44
15.83389509156609
 45
-0.0883883476483184
 46
0.0883883476483185
 79
     0
 47
0.0456255720955981
 98
        3
 10
76.85786526894958
 20
158.2465091796185
 10
56.30711304582951
 20
158.3833857648835
 10
56.30711304582951
 20
158.3833857648835
  0
MTEXT
  5
3148
330
17
100
AcDbEntity
  8
DIM
 62
    30
100
AcDbMText
 10
131.8188667753502
 20
161.4134645457219
 30
0.0
 40
2.256
 41
0.0
 71
     5
 72
     1
  1
HEIGHT\P\P_____
  7
LEFT
 11
0.9848077530122084
 21
-0.1736481776669304
 31
0.0
  0
MTEXT
  5
3149
330
17
100
AcDbEntity
  8
DIM
 62
    30
100
AcDbMText
 10
133.2176057424607
 20
105.8384663907465
 30
0.0
 40
2.256
 41
0.0
 71
     5
 72
     1
  1
HEIGHT\P\P_____
  7
LEFT
 11
0.9848077530122084
 21
-0.1736481776669304
 31
0.0
  0
SOLID
  5
314A
330
17
100
AcDbEntity
  8
DIM
100
AcDbTrace
 10
132.6633340839275
 20
96.24417022233416
 30
0.0
 11
133.4064380820189
 21
96.11314093799832
 31
0.0
 12
133.0464380820189
 22
93.95314093799834
 32
0.0
 13
133.0464380820189
 23
93.95314093799834
 33
0.0
  0
LINE
  5
314B
330
17
100
AcDbEntity
  8
DIM
100
AcDbLine
 10
133.0464380820189
 20
99.43468405944813
 30
0.0
 11
133.0464380820189
 21
93.95314093799834
 31
0.0
  0
LINE
  5
314C
330
17
100
AcDbEntity
  8
7
100
AcDbLine
 10
168.3509650369551
 20
112.254570969978
 30
0.0
 11
168.3509650369551
 21
88.7698893606956
 31
0.0
  0
LWPOLYLINE
  5
314D
330
17
100
AcDbEntity
  8
7
100
AcDbPolyline
 90
        4
 70
     1
 43
0.0
 10
147.3306952479756
 20
91.43444100026196
 10
165.3965417779189
 20
88.24894482769483
 10
165.3965417779189
 20
111.733626436977
 10
147.3306952479756
 20
114.9191226095441
  0
LINE
  5
314E
330
17
100
AcDbEntity
  8
7
100
AcDbLine
 10
146.2703374003165
 20
119.639976819309
 30
0.0
 11
146.2703374003165
 21
90.79505887567692
 31
0.0
  0
LINE
  5
314F
330
17
100
AcDbEntity
  8
7
100
AcDbLine
 10
142.7332360845591
 20
120.1041877878119
 30
0.0
 11
142.7332360845591
 21
91.25926984417985
 31
0.0
  0
LINE
  5
3150
330
17
100
AcDbEntity
  8
7
100
AcDbLine
 10
167.3661572839431
 20
116.4411591266606
 30
0.0
 11
167.3661572839431
 21
87.5962411830287
 31
0.0
  0
LINE
  5
3151
330
17
100
AcDbEntity
  8
7
100
AcDbLine
 10
167.3661572839431
 20
116.4411591266606
 30
0.0
 11
167.3661572839431
 21
87.5962411830287
 31
0.0
  0
LINE
  5
3152
330
17
100
AcDbEntity
  8
7
100
AcDbLine
 10
166.381349530931
 20
116.2675109489936
 30
0.0
 11
166.381349530931
 21
87.42259300536173
 31
0.0
  0
LWPOLYLINE
  5
3153
330
17
100
AcDbEntity
  8
3
100
AcDbPolyline
 90
        5
 70
     0
 43
0.0
 10
186.2705664387549
 20
42.55593323940266
 10
186.2705664387549
 20
55.02442515876666
 10
203.895566438755
 20
55.02442515876655
 10
207.395566438755
 20
54.02442515876667
 10
208.3955664387549
 20
54.02442515876655
  0
LWPOLYLINE
  5
3154
330
17
100
AcDbEntity
  8
3
100
AcDbPolyline
 90
        6
 70
     0
 43
0.0
 10
207.5687691540472
 20
56.02442515876661
 10
186.2705664387549
 20
56.02442515876667
 10
186.2705664387549
 20
73.50403949771658
 10
203.895566438755
 20
73.50403949771646
 10
207.395566438755
 20
72.50403949771658
 10
208.3955664387549
 20
72.50403949771646
  0
LWPOLYLINE
  5
3155
102
{ACAD_REACTORS
330
33F6
102
}
330
17
100
AcDbEntity
  8
0
100
AcDbPolyline
 90
       38
 70
     0
 43
0.0
 10
160.8955664387549
 20
43.00050455914206
 10
161.7459355988989
 20
43.00050455914206
 10
162.5061735385413
 20
44.3172752964442
 10
164.099962283249
 20
44.03624733920277
 10
165.4206791374212
 20
42.46227828344334
 10
166.6515555686667
 20
42.46227828344334
 10
167.8616795068805
 20
43.16094366492388
 10
169.2076094610536
 20
42.92361989985944
 10
170.3985270239551
 20
43.92291838765258
 10
172.3747787715759
 20
43.92291838765258
 10
173.2312499191413
 20
42.43946684485252
 10
175.1779904275516
 20
42.43946684485252
 10
175.8487807278209
 20
43.60130972614329
 10
177.747600588853
 20
43.60130972614329
 10
178.919285201076
 20
44.27778215241555
 10
180.6676127067061
 20
44.27778215241555
 10
181.656413657818
 20
42.56512866651733
 10
183.2372228680075
 20
42.56512866651733
 10
184.1341857814194
 20
43.63408744099966
 10
185.3396317527193
 20
43.63408744099966
 10
185.9621043712392
 20
42.55593323940266
 10
187.9092419140207
 20
42.55593323940266
 10
189.4933145916458
 20
44.44375754389268
 10
191.0628549556284
 20
44.44375754389268
 10
192.3110634047811
 20
45.16441102801577
 10
194.4500683500711
 20
45.16441102801577
 10
195.8740510597857
 20
43.46737451792137
 10
197.0196790822923
 20
43.46737451792137
 10
197.9804088582198
 20
42.32242135594749
 10
199.9396906292257
 20
42.32242135594749
 10
200.7116939423965
 20
43.65957031797081
 10
202.6261018233241
 20
43.65957031797081
 10
203.419070455745
 20
42.28610835780925
 10
205.5461139411772
 20
42.28610835780925
 10
206.6527641685606
 20
44.20288277784482
 10
208.3493250262332
 20
44.20288277784482
 10
209.0957014470026
 20
42.9101208955008
 10
210.8955664387549
 20
42.9101208955008
  0
LINE
  5
3156
330
17
100
AcDbEntity
  8
0
100
AcDbLine
 10
160.8955664387549
 20
74.00403949771658
 30
0.0
 11
210.8955664387549
 21
74.00403949771658
 31
0.0
  0
LINE
  5
3157
330
17
100
AcDbEntity
  8
FRA
 48
6.0
100
AcDbLine
 10
181.6583589519449
 20
86.55956417445984
 30
0.0
 11
245.9999999501409
 21
86.55956417445984
 31
0.0
  0
TEXT
  5
3159
330
17
100
AcDbEntity
  8
TEXT
 48
6.0
100
AcDbText
 10
187.8883695051949
 20
89.95329822006622
 30
0.0
 40
1.85540461056
  1
- %%UDOUBLE DUTCH
100
AcDbText
  0
LWPOLYLINE
  5
315A
330
17
100
AcDbEntity
  8
3
100
AcDbPolyline
 90
        6
 70
     0
 43
0.0
 10
164.2223637234626
 20
56.02442515876661
 10
185.520566438755
 20
56.02442515876667
 10
185.5205664387549
 20
73.50403949771658
 10
167.8955664387548
 20
73.50403949771646
 10
164.3955664387547
 20
72.50403949771658
 10
163.3955664387549
 20
72.50403949771646
  0
LWPOLYLINE
  5
315B
330
17
100
AcDbEntity
  8
3
100
AcDbPolyline
 90
        5
 70
     0
 43
0.0
 10
185.5205664387549
 20
43.32069937193439
 10
185.5205664387549
 20
55.02442515876666
 10
167.8955664387548
 20
55.02442515876655
 10
164.3955664387547
 20
54.02442515876667
 10
163.3955664387549
 20
54.02442515876655
  0
LINE
  5
315C
330
17
100
AcDbEntity
  8
7
100
AcDbLine
 10
166.381349530931
 20
87.42259300536179
 30
0.0
 11
148.3155030009882
 21
90.60808917792863
 31
0.0
  0
LINE
  5
315D
330
17
100
AcDbEntity
  8
0
100
AcDbLine
 10
160.8955664387549
 20
43.00050455914206
 30
0.0
 11
160.8955664387549
 21
74.00403949771658
 31
0.0
  0
LINE
  5
315E
330
17
100
AcDbEntity
  8
7
100
AcDbLine
 10
161.3882349345202
 20
56.02442515876661
 30
0.0
 11
161.3882349345202
 21
72.5040394977165
 31
0.0
  0
LINE
  5
315F
330
17
100
AcDbEntity
  8
7
100
AcDbLine
 10
161.6609697174435
 20
56.02442515876661
 30
0.0
 11
161.6609697174434
 21
72.5040394977165
 31
0.0
  0
LINE
  5
3160
330
17
100
AcDbEntity
  8
7
100
AcDbLine
 10
163.4723637234626
 20
56.02442515876661
 30
0.0
 11
163.4723637234626
 21
72.5040394977165
 31
0.0
  0
LINE
  5
3161
330
17
100
AcDbEntity
  8
7
100
AcDbLine
 10
164.2223637234626
 20
56.02442515876661
 30
0.0
 11
164.2223637234626
 21
72.5040394977165
 31
0.0
  0
LINE
  5
3162
330
17
100
AcDbEntity
  8
7
100
AcDbLine
 10
164.2223637234626
 20
43.89037498308947
 30
0.0
 11
164.2223637234626
 21
54.02442515876661
 31
0.0
  0
LINE
  5
3163
330
17
100
AcDbEntity
  8
7
100
AcDbLine
 10
161.6609697174434
 20
43.00050455914206
 30
0.0
 11
161.6609697174434
 21
54.02442515876661
 31
0.0
  0
LINE
  5
3164
330
17
100
AcDbEntity
  8
7
100
AcDbLine
 10
161.3882349345202
 20
43.00050455914206
 30
0.0
 11
161.3882349345202
 21
54.02442515876661
 31
0.0
  0
LINE
  5
3165
330
17
100
AcDbEntity
  8
7
100
AcDbLine
 10
163.4723637234626
 20
44.14690989834688
 30
0.0
 11
163.4723637234626
 21
54.02442515876661
 31
0.0
  0
CIRCLE
  5
3166
330
17
100
AcDbEntity
  8
7
100
AcDbCircle
 10
163.8473637234626
 20
44.76338204201923
 30
0.0
 40
0.2535
  0
CIRCLE
  5
3167
330
17
100
AcDbEntity
  8
7
100
AcDbCircle
 10
163.8473637234626
 20
44.76338204201923
 30
0.0
 40
0.1875
  0
CIRCLE
  5
3168
330
17
100
AcDbEntity
  8
7
100
AcDbCircle
 10
163.8473637234626
 20
57.02442515876661
 30
0.0
 40
0.2535
  0
CIRCLE
  5
3169
330
17
100
AcDbEntity
  8
7
100
AcDbCircle
 10
163.8473637234626
 20
53.02442515876661
 30
0.0
 40
0.2535
  0
CIRCLE
  5
316A
330
17
100
AcDbEntity
  8
7
100
AcDbCircle
 10
163.8473637234626
 20
53.02442515876661
 30
0.0
 40
0.1875
  0
CIRCLE
  5
316B
330
17
100
AcDbEntity
  8
7
100
AcDbCircle
 10
163.8473637234626
 20
57.02442515876661
 30
0.0
 40
0.1875
  0
LINE
  5
316C
330
17
100
AcDbEntity
  8
7
100
AcDbLine
 10
161.3882349345202
 20
54.02442515876661
 30
0.0
 11
164.2223637234626
 21
54.02442515876661
 31
0.0
  0
LINE
  5
316D
330
17
100
AcDbEntity
  8
7
100
AcDbLine
 10
161.3882349345202
 20
56.02442515876661
 30
0.0
 11
164.2223637234626
 21
56.02442515876661
 31
0.0
  0
CIRCLE
  5
316E
330
17
100
AcDbEntity
  8
4
100
AcDbCircle
 10
162.6299414387549
 20
58.89942515876661
 30
0.0
 40
0.1875
  0
CIRCLE
  5
316F
330
17
100
AcDbEntity
  8
4
100
AcDbCircle
 10
162.6299414387549
 20
58.89942515876661
 30
0.0
 40
0.125
  0
CIRCLE
  5
3170
330
17
100
AcDbEntity
  8
7
100
AcDbCircle
 10
163.8473637234626
 20
63.24299638096914
 30
0.0
 40
0.1875
  0
CIRCLE
  5
3171
330
17
100
AcDbEntity
  8
7
100
AcDbCircle
 10
163.8473637234626
 20
63.24299638096914
 30
0.0
 40
0.2535
  0
ELLIPSE
  5
3172
330
17
100
AcDbEntity
  8
7
100
AcDbEllipse
 10
145.6072816802041
 20
91.25926984417985
 30
0.0
 11
-2.874045595644957
 21
1.680000000000000E-14
 31
0.0
210
0.0
220
0.0
230
1.0
 40
0.1659962476938306
 41
0.0000000000000344
 42
1.803598146510193
  0
LINE
  5
3173
330
17
100
AcDbEntity
  8
DIM
100
AcDbLine
 10
131.9828457087657
 20
94.14068096987862
 30
0.0
 11
146.5381976822332
 21
91.57417970324809
 31
0.0
  0
TEXT
  5
3174
330
17
100
AcDbEntity
  8
DIM
 62
    30
100
AcDbText
 10
145.9492981091545
 20
80.58326021861487
 30
0.0
 40
2.592
  1
%%UKICKPLATE
 41
0.9
100
AcDbText
  0
CIRCLE
  5
3175
330
17
100
AcDbEntity
  8
7
100
AcDbCircle
 10
163.8473637234626
 20
71.50403949771652
 30
0.0
 40
0.1875
  0
CIRCLE
  5
3176
330
17
100
AcDbEntity
  8
7
100
AcDbCircle
 10
163.8473637234626
 20
71.50403949771652
 30
0.0
 40
0.2535
  0
LINE
  5
3177
330
17
100
AcDbEntity
  8
7
100
AcDbLine
 10
161.3882349345202
 20
72.5040394977165
 30
0.0
 11
164.2223637234626
 21
72.5040394977165
 31
0.0
  0
LINE
  5
3178
330
17
100
AcDbEntity
  8
7
100
AcDbLine
 10
148.3155030009882
 20
90.60808917792863
 30
0.0
 11
147.8230991244821
 21
90.52126508909518
 31
0.0
  0
LINE
  5
3179
330
17
100
AcDbEntity
  8
7
100
AcDbLine
 10
146.2703374003166
 20
90.79505887567692
 30
0.0
 11
147.8297882532936
 21
90.52008561520827
 31
0.0
  0
LINE
  5
317A
330
17
100
AcDbEntity
  8
7
100
AcDbLine
 10
147.8297882532936
 20
91.34643743754152
 30
0.0
 11
147.8297882532936
 21
90.52244456298209
 31
0.0
  0
LINE
  5
317B
330
17
100
AcDbEntity
  8
7
100
AcDbLine
 10
148.3155030009882
 20
91.260792822595
 30
0.0
 11
148.3155030009882
 21
90.60808917792863
 31
0.0
  0
ELLIPSE
  5
317C
330
17
100
AcDbEntity
  8
7
100
AcDbEllipse
 10
147.0849113802736
 20
92.6514275052274
 30
0.0
 11
0.1712252347122969
 21
-0.204058288611167
 31
0.0
210
0.0
220
0.0
230
-1.0
 40
0.8607148457589644
 41
0.0
 42
6.283185307179586
  0
TEXT
  5
3180
330
17
100
AcDbEntity
  8
DIM
 62
    30
100
AcDbText
 10
175.889878122146
 20
35.58993038282296
 30
0.0
 40
2.592
  1
%%UDOUBLE DUTCH
 41
0.9
100
AcDbText
  0
LWPOLYLINE
  5
3181
102
{ACAD_REACTORS
330
33F6
102
}
330
17
100
AcDbEntity
  8
3
100
AcDbPolyline
 90
        6
 70
     0
 43
0.0
 10
170.895566438755
 20
43.92291838765258
 10
170.895566438755
 20
46.30504870868592
 42
-0.4142135623730951
 10
174.145566438755
 20
49.55504870868592
 10
178.1455664387549
 20
49.55504870868592
 42
-0.4142135623730951
 10
181.3955664387549
 20
46.30504870868592
 10
181.3955664387549
 20
43.01692930294769
  0
LWPOLYLINE
  5
3182
102
{ACAD_REACTORS
330
33F6
102
}
330
17
100
AcDbEntity
  8
3
100
AcDbPolyline
 90
        6
 70
     0
 43
0.0
 10
171.895566438755
 20
43.92291838765258
 10
171.895566438755
 20
46.30504870868592
 42
-0.4142135623730951
 10
174.145566438755
 20
48.55504870868593
 10
178.1455664387549
 20
48.55504870868593
 42
-0.4142135623730951
 10
180.3955664387549
 20
46.30504870868592
 10
180.3955664387549
 20
44.27778215241555
  0
LWPOLYLINE
  5
3183
102
{ACAD_REACTORS
330
33F6
102
}
330
17
100
AcDbEntity
  8
3
100
AcDbPolyline
 90
        6
 70
     0
 43
0.0
 10
200.8955664387549
 20
43.65957031797081
 10
200.8955664387549
 20
46.30504870868592
 42
0.4142135623730951
 10
197.6455664387549
 20
49.55504870868592
 10
193.6455664387549
 20
49.55504870868592
 42
0.4142135623730951
 10
190.3955664387549
 20
46.30504870868592
 10
190.3955664387549
 20
44.44375754389268
  0
LWPOLYLINE
  5
3184
102
{ACAD_REACTORS
330
33F6
102
}
330
17
100
AcDbEntity
  8
3
100
AcDbPolyline
 90
        6
 70
     0
 43
0.0
 10
199.8955664387549
 20
42.32242135594749
 10
199.8955664387549
 20
46.30504870868592
 42
0.4142135623730951
 10
197.6455664387549
 20
48.55504870868593
 10
193.6455664387549
 20
48.55504870868593
 42
0.4142135623730951
 10
191.3955664387549
 20
46.30504870868592
 10
191.3955664387549
 20
44.63584860823821
  0
LWPOLYLINE
  5
3185
330
17
100
AcDbEntity
  8
TEXT
 48
6.0
100
AcDbPolyline
 90
        4
 70
     1
 43
0.0
 10
184.3165165019712
 20
91.75883056644838
 10
184.3165165019712
 20
89.59288550049368
 10
186.4824615679258
 20
89.59288550049368
 10
186.4824615679258
 20
91.75883056644838
  0
LINE
  5
3187
330
17
100
AcDbEntity
  8
7
100
AcDbLine
 10
166.381349530931
 20
87.42259300536179
 30
0.0
 11
167.3661572839431
 21
87.5962411830287
 31
0.0
  0
LINE
  5
3188
330
17
100
AcDbEntity
  8
7
100
AcDbLine
 10
165.3965417779189
 20
88.24894482769488
 30
0.0
 11
166.381349530931
 21
88.4225930053619
 31
0.0
  0
LINE
  5
3189
330
17
100
AcDbEntity
  8
7
100
AcDbLine
 10
167.3661572839431
 20
88.5962411830288
 30
0.0
 11
168.3509650369551
 21
88.7698893606956
 31
0.0
  0
DIMENSION
  5
318A
330
17
100
AcDbEntity
  8
DIM
100
AcDbDimension
  2
*D2
 10
222.4367962507759
 20
74.00403949771658
 30
0.0
 11
222.4367962507758
 21
64.40168842469637
 31
0.0
 70
   160
  1
HEIGHT\P\P_____
  3
STANDARD
100
AcDbAlignedDimension
 13
210.4028979429896
 23
56.02442515876661
 33
0.0
 14
210.8955664387549
 24
74.00403949771658
 34
0.0
 50
90.0
100
AcDbRotatedDimension
1001
ACAD
1000
DSTYLE
1002
{
1070
   287
1070
     0
1070
   287
1070
     0
1070
     3
1000
"
1070
    40
1040
12.0
1070
    42
1040
0.18
1070
   140
1040
0.188
1070
   141
1040
0.19
1070
   146
1040
0.5
1070
   176
1070
   256
1070
   177
1070
   256
1070
   178
1070
    30
1070
   271
1070
     2
1070
   272
1070
     2
1070
   289
1070
     0
1002
}
  0
LINE
  5
318B
330
17
100
AcDbEntity
  8
0
100
AcDbLine
 10
210.8955664387549
 20
74.00403949771658
 30
0.0
 11
210.8955664387549
 21
42.9101208955008
 31
0.0
  0
LINE
  5
318C
330
17
100
AcDbEntity
  8
7
100
AcDbLine
 10
208.3187691540473
 20
56.02442515876661
 30
0.0
 11
208.3187691540473
 21
72.5040394977165
 31
0.0
  0
LINE
  5
318D
330
17
100
AcDbEntity
  8
7
100
AcDbLine
 10
207.5687691540472
 20
56.02442515876661
 30
0.0
 11
207.5687691540472
 21
72.5040394977165
 31
0.0
  0
LINE
  5
318E
330
17
100
AcDbEntity
  8
7
100
AcDbLine
 10
210.4028979429896
 20
56.02442515876661
 30
0.0
 11
210.4028979429896
 21
72.5040394977165
 31
0.0
  0
LINE
  5
318F
330
17
100
AcDbEntity
  8
7
100
AcDbLine
 10
210.1301631600664
 20
56.02442515876661
 30
0.0
 11
210.1301631600664
 21
72.5040394977165
 31
0.0
  0
LINE
  5
3190
330
17
100
AcDbEntity
  8
7
100
AcDbLine
 10
210.1301631600664
 20
42.9101208955008
 30
0.0
 11
210.1301631600664
 21
54.02442515876661
 31
0.0
  0
LINE
  5
3191
330
17
100
AcDbEntity
  8
7
100
AcDbLine
 10
210.4028979429896
 20
42.9101208955008
 30
0.0
 11
210.4028979429896
 21
54.02442515876661
 31
0.0
  0
LINE
  5
3192
330
17
100
AcDbEntity
  8
7
100
AcDbLine
 10
207.5687691540472
 20
44.20288277784482
 30
0.0
 11
207.5687691540472
 21
54.02442515876661
 31
0.0
  0
LINE
  5
3193
330
17
100
AcDbEntity
  8
7
100
AcDbLine
 10
208.3187691540473
 20
44.20288277784482
 30
0.0
 11
208.3187691540473
 21
54.02442515876661
 31
0.0
  0
CIRCLE
  5
3194
330
17
100
AcDbEntity
  8
7
100
AcDbCircle
 10
207.9437691540472
 20
44.76338204201923
 30
0.0
 40
0.2535
  0
CIRCLE
  5
3195
330
17
100
AcDbEntity
  8
7
100
AcDbCircle
 10
207.9437691540472
 20
44.76338204201923
 30
0.0
 40
0.1875
  0
CIRCLE
  5
3196
330
17
100
AcDbEntity
  8
7
100
AcDbCircle
 10
207.9437691540472
 20
57.02442515876661
 30
0.0
 40
0.2535
  0
CIRCLE
  5
3197
330
17
100
AcDbEntity
  8
7
100
AcDbCircle
 10
207.9437691540472
 20
53.02442515876661
 30
0.0
 40
0.2535
  0
CIRCLE
  5
3198
330
17
100
AcDbEntity
  8
7
100
AcDbCircle
 10
207.9437691540472
 20
53.02442515876661
 30
0.0
 40
0.1875
  0
CIRCLE
  5
3199
330
17
100
AcDbEntity
  8
7
100
AcDbCircle
 10
207.9437691540472
 20
57.02442515876661
 30
0.0
 40
0.1875
  0
LINE
  5
319A
330
17
100
AcDbEntity
  8
7
100
AcDbLine
 10
210.4028979429896
 20
54.02442515876661
 30
0.0
 11
207.5687691540472
 21
54.02442515876661
 31
0.0
  0
LINE
  5
319B
330
17
100
AcDbEntity
  8
7
100
AcDbLine
 10
210.4028979429896
 20
56.02442515876661
 30
0.0
 11
207.5687691540472
 21
56.02442515876661
 31
0.0
  0
CIRCLE
  5
319C
330
17
100
AcDbEntity
  8
4
100
AcDbCircle
 10
209.1561914387549
 20
58.89942515876661
 30
0.0
 40
0.1875
  0
CIRCLE
  5
319D
330
17
100
AcDbEntity
  8
4
100
AcDbCircle
 10
209.1561914387549
 20
58.89942515876661
 30
0.0
 40
0.125
  0
CIRCLE
  5
319E
330
17
100
AcDbEntity
  8
7
100
AcDbCircle
 10
207.9437691540472
 20
63.24299638096914
 30
0.0
 40
0.1875
  0
CIRCLE
  5
319F
330
17
100
AcDbEntity
  8
7
100
AcDbCircle
 10
207.9437691540472
 20
63.24299638096914
 30
0.0
 40
0.2535
  0
CIRCLE
  5
31A0
330
17
100
AcDbEntity
  8
7
100
AcDbCircle
 10
207.9437691540472
 20
71.50403949771652
 30
0.0
 40
0.1875
  0
CIRCLE
  5
31A1
330
17
100
AcDbEntity
  8
7
100
AcDbCircle
 10
207.9437691540472
 20
71.50403949771652
 30
0.0
 40
0.2535
  0
LINE
  5
31A2
330
17
100
AcDbEntity
  8
7
100
AcDbLine
 10
210.4028979429896
 20
72.5040394977165
 30
0.0
 11
207.5687691540472
 21
72.5040394977165
 31
0.0
  0
POINT
  5
31A3
330
17
100
AcDbEntity
  8
DEFPOINTS
  6
BYBLOCK
 62
     0
100
AcDbPoint
 10
207.8205664387549
 20
74.00403949771658
 30
0.0
  0
TEXT
  5
31A4
330
17
100
AcDbEntity
  8
TEXT
 48
6.0
100
AcDbText
 10
187.8883695051949
 20
101.2831040371324
 30
0.0
 40
1.85540461056
  1
- %%UCART GUARD
100
AcDbText
  0
TEXT
  5
31A6
330
17
100
AcDbEntity
  8
TEXT
 48
6.0
100
AcDbText
 10
194.789026592957
 20
107.6270285924165
 30
0.0
 40
1.85540461056
  1
1/4" ABS
100
AcDbText
  0
TEXT
  5
31A7
330
17
100
AcDbEntity
  8
TEXT
 48
6.0
100
AcDbText
 10
184.3045470906855
 20
150.4261439234737
 30
0.0
 40
1.85540461056
  1
(CHECK BOX IF APPLICABLE)
100
AcDbText
  0
TEXT
  5
31A8
330
17
100
AcDbEntity
  8
TEXT
 48
6.0
100
AcDbText
 10
190.1645535717993
 20
176.8552161606706
 30
0.0
 40
1.85540461056
  1
__________W x __________H
100
AcDbText
  0
TEXT
  5
31A9
330
17
100
AcDbEntity
  8
TEXT
 48
6.0
100
AcDbText
 10
195.5669616361341
 20
171.5437547793989
 30
0.0
 40
1.85540461056
  1
DOUBLE
100
AcDbText
  0
TEXT
  5
31AA
330
17
100
AcDbEntity
  8
TEXT
 48
6.0
100
AcDbText
 10
191.1769987485922
 20
166.5851085199136
 30
0.0
 40
1.85540461056
  1
%%UQUANTITY%%U: ______
100
AcDbText
  0
TEXT
  5
31AB
330
17
100
AcDbEntity
  8
TEXT
 48
6.0
100
AcDbText
 10
187.8883695051949
 20
113.0012272600671
 30
0.0
 40
1.85540461056
  1
- %%UKICKPLATES:%%U (UP TO 48" HIGH)
100
AcDbText
  0
TEXT
  5
31AC
330
17
100
AcDbEntity
  8
TEXT
 48
6.0
100
AcDbText
 10
187.8883695051949
 20
119.4424058569221
 30
0.0
 40
1.85540461056
  1
- %%U9 1/4" JAMB GUARDS
100
AcDbText
  0
TEXT
  5
31AD
330
17
100
AcDbEntity
  8
TEXT
 48
6.0
100
AcDbText
 10
187.8883695051949
 20
144.8478113410874
 30
0.0
 40
1.85540461056
  1
- %%U5/16" THICK HDP SPRING BUMPERS
100
AcDbText
  0
TEXT
  5
31AE
330
17
100
AcDbEntity
  8
TEXT
 48
6.0
100
AcDbText
 10
190.5390265929608
 20
140.7453033411505
 30
0.0
 40
1.85540461056
  1
(UP TO 42" HIGH)
100
AcDbText
  0
TEXT
  5
31AF
330
17
100
AcDbEntity
  8
TEXT
 48
6.0
100
AcDbText
 10
194.789026592957
 20
124.8523827352739
 30
0.0
 40
1.85540461056
  1
ROUND -  DIAMETER: ______
100
AcDbText
  0
TEXT
  5
31B0
330
17
100
AcDbEntity
  8
TEXT
 48
6.0
100
AcDbText
 10
194.789026592957
 20
129.7866066704073
 30
0.0
 40
1.85540461056
  1
RECTANGULAR ____W x ____H
100
AcDbText
  0
TEXT
  5
31B1
330
17
100
AcDbEntity
  8
TEXT
 48
6.0
100
AcDbText
 10
187.8883695051949
 20
135.1065199762532
 30
0.0
 40
1.85540461056
  1
- %%UCUSTOM WINDOW DESIGN
100
AcDbText
  0
LINE
  5
31B2
330
17
100
AcDbEntity
  8
7
100
AcDbLine
 10
170.6217176708894
 20
168.7092092460195
 30
0.0
 11
170.6217176708894
 21
145.5104969329516
 31
0.0
  0
LINE
  5
31B3
330
17
100
AcDbEntity
  8
7
100
AcDbLine
 10
165.5981154094527
 20
172.2370085112255
 30
0.0
 11
165.5981154094527
 21
143.3920905675936
 31
0.0
  0
LINE
  5
31B4
330
17
100
AcDbEntity
  8
7
100
AcDbLine
 10
165.5981154094527
 20
172.2370085112255
 30
0.0
 11
165.5981154094527
 21
143.3920905675936
 31
0.0
  0
LINE
  5
31B5
330
17
100
AcDbEntity
  8
7
100
AcDbLine
 10
164.6133076564405
 20
172.0633603335586
 30
0.0
 11
164.6133076564405
 21
143.2184423899267
 31
0.0
  0
LINE
  5
31B6
330
17
100
AcDbEntity
  8
7
100
AcDbLine
 10
144.502295525826
 20
175.4358262038739
 30
0.0
 11
144.502295525826
 21
146.5909082602418
 31
0.0
  0
LINE
  5
31B7
330
17
100
AcDbEntity
  8
7
100
AcDbLine
 10
145.9319562808651
 20
170.4941207645195
 30
0.0
 11
145.9319562808651
 21
147.2954084514515
 31
0.0
  0
LINE
  5
31B8
330
17
100
AcDbEntity
  8
7
100
AcDbLine
 10
140.9651942100686
 20
175.9000371723768
 30
0.0
 11
140.9651942100686
 21
147.0551192287448
 31
0.0
  0
LINE
  5
31B9
330
17
100
AcDbEntity
  8
7
100
AcDbLine
 10
163.1371787479967
 20
167.3894830957509
 30
0.0
 11
163.1371787479967
 21
144.1907707826829
 31
0.0
  0
LINE
  5
31BA
330
17
100
AcDbEntity
  8
7
100
AcDbLine
 10
166.3813495309309
 20
116.2675109489937
 30
0.0
 11
143.7591365486845
 21
120.2564174610964
 31
0.0
  0
LINE
  5
31BB
330
17
100
AcDbEntity
  8
7
100
AcDbLine
 10
167.3661572839432
 20
116.4411591266606
 30
0.0
 11
144.7439443016978
 21
120.4300656387636
 31
0.0
  0
LINE
  5
31BC
330
17
100
AcDbEntity
  8
7
100
AcDbLine
 10
166.3813495309309
 20
111.907274614644
 30
0.0
 11
148.3155030009882
 21
115.0927707872111
 31
0.0
  0
TEXT
  5
31BD
330
17
100
AcDbEntity
  8
DIM
 62
    30
100
AcDbText
 10
142.1130140992302
 20
134.7247319174073
 30
0.0
 40
2.592
  1
%%USPRING BUMPER
 41
0.9
100
AcDbText
  0
LINE
  5
31BE
330
17
100
AcDbEntity
  8
7
100
AcDbLine
 10
164.6133076564405
 20
143.2184423899267
 30
0.0
 11
165.5981154094527
 21
143.3920905675936
 31
0.0
  0
ELLIPSE
  5
31BF
330
17
100
AcDbEntity
  8
7
100
AcDbEllipse
 10
145.6072816802041
 20
120.1041877878119
 30
0.0
 11
2.874045595645124
 21
1.087000000000000E-13
 31
0.0
210
0.0
220
0.0
230
1.0
 40
0.1659962476938305
 41
-0.2931401064670247
 42
4.945190800099966
  0
ELLIPSE
  5
31C0
330
17
100
AcDbEntity
  8
7
100
AcDbEllipse
 10
145.6072816802044
 20
120.1041877878118
 30
0.0
 11
-2.144612823469494
 21
3.335000000000000E-13
 31
0.0
210
0.0
220
0.0
230
1.0
 40
0.1659962476938311
 41
2.666941584253768
 42
8.268294416559677
  0
LINE
  5
31C1
330
17
100
AcDbEntity
  8
DIM
100
AcDbLine
 10
131.9828457087657
 20
117.6253625791608
 30
0.0
 11
146.5103120906377
 21
115.0637782947016
 31
0.0
  0
LINE
  5
31C2
330
17
100
AcDbEntity
  8
DIM
100
AcDbLine
 10
133.0464380820189
 20
117.4378225472805
 30
0.0
 11
133.0464380820189
 21
111.7449597935402
 31
0.0
  0
SOLID
  5
31C3
330
17
100
AcDbEntity
  8
DIM
100
AcDbTrace
 10
132.6864380820189
 20
115.2778225472805
 30
0.0
 11
133.4295420801102
 21
115.1467932629447
 31
0.0
 12
133.0464380820189
 22
117.4378225472805
 32
0.0
 13
133.0464380820189
 23
117.4378225472805
 33
0.0
  0
LINE
  5
31C4
330
17
100
AcDbEntity
  8
7
100
AcDbLine
 10
143.7591365486844
 20
120.2564174610964
 30
0.0
 11
143.7591365486844
 21
119.9235854162113
 31
0.0
  0
LINE
  5
31C5
330
17
100
AcDbEntity
  8
7
100
AcDbLine
 10
144.7439443016978
 20
120.4300656387636
 30
0.0
 11
143.7591365486852
 21
120.2564174610966
 31
0.0
  0
ELLIPSE
  5
31C7
330
17
100
AcDbEntity
  8
7
100
AcDbEllipse
 10
147.0849113802736
 20
104.9179536792084
 30
0.0
 11
0.1712252347122969
 21
-0.204058288611167
 31
0.0
210
0.0
220
0.0
230
-1.0
 40
0.8607148457589644
 41
0.0
 42
6.283185307179586
  0
LINE
  5
31CA
330
17
100
AcDbEntity
  8
7
100
AcDbLine
 10
148.3155030009882
 20
119.4530071215607
 30
0.0
 11
148.3155030009882
 21
115.0927707872111
 31
0.0
  0
LINE
  5
31CB
330
17
100
AcDbEntity
  8
7
100
AcDbLine
 10
147.8297882532936
 20
119.3650035588403
 30
0.0
 11
147.8297882532935
 21
115.0071261722645
 31
0.0
  0
LINE
  5
31CD
330
17
100
AcDbEntity
  8
7
100
AcDbLine
 10
147.3306952479756
 20
114.9191226095441
 30
0.0
 11
148.3155030009882
 21
115.0927707872111
 31
0.0
  0
ELLIPSE
  5
31CE
330
17
100
AcDbEntity
  8
7
100
AcDbEllipse
 10
147.0849113802736
 20
117.4963454488595
 30
0.0
 11
0.1712252347122969
 21
-0.204058288611167
 31
0.0
210
0.0
220
0.0
230
-1.0
 40
0.8607148457589644
 41
0.0
 42
6.283185307179586
  0
LINE
  5
31CF
330
17
100
AcDbEntity
  8
7
100
AcDbLine
 10
148.3155030009882
 20
119.4530071215607
 30
0.0
 11
147.8230991244821
 21
119.3661830327272
 31
0.0
  0
LINE
  5
31D0
330
17
100
AcDbEntity
  8
7
100
AcDbLine
 10
146.4706190587111
 20
119.77830993686
 30
0.0
 11
148.3155030009882
 21
119.4530071215607
 31
0.0
  0
LINE
  5
31D1
330
17
100
AcDbEntity
  8
7
100
AcDbLine
 10
147.5148123747509
 20
119.9414868375005
 30
0.0
 11
149.3003107540005
 21
119.6266552992276
 31
0.0
  0
LINE
  5
31D2
330
17
100
AcDbEntity
  8
7
100
AcDbLine
 10
146.2703374003166
 20
119.639976819309
 30
0.0
 11
147.8297882532936
 21
119.3650035588403
 31
0.0
  0
LINE
  5
31D3
330
17
100
AcDbEntity
  8
7
100
AcDbLine
 10
149.7927146305065
 20
119.713479388061
 30
0.0
 11
149.3003107540006
 21
119.6266552992276
 31
0.0
  0
LINE
  5
31D4
330
17
100
AcDbEntity
  8
7
100
AcDbLine
 10
149.7927146305065
 20
119.713479388061
 30
0.0
 11
149.7927146305065
 21
119.5398312103944
 31
0.0
  0
LINE
  5
31D5
330
17
100
AcDbEntity
  8
7
100
AcDbLine
 10
148.3587240323963
 20
119.9663306205902
 30
0.0
 11
149.7927146305065
 21
119.713479388061
 31
0.0
  0
LINE
  5
31D7
330
17
100
AcDbEntity
  8
7
100
AcDbLine
 10
144.5022955258261
 20
146.5909082602418
 30
0.0
 11
146.0617463788031
 21
146.3159349997732
 31
0.0
  0
LINE
  5
31D8
330
17
100
AcDbEntity
  8
DIM
100
AcDbLine
 10
130.5841067416551
 20
150.0016484210681
 30
0.0
 11
145.1394587151226
 21
147.4351471544377
 31
0.0
  0
LINE
  5
31D9
330
17
100
AcDbEntity
  8
DIM
100
AcDbLine
 10
131.6476991149083
 20
155.2956515106377
 30
0.0
 11
131.6476991149083
 21
149.8141083891879
 31
0.0
  0
SOLID
  5
31DA
330
17
100
AcDbEntity
  8
DIM
100
AcDbTrace
 10
131.264595116817
 20
152.1051376735237
 30
0.0
 11
132.0076991149083
 21
151.9741083891879
 31
0.0
 12
131.6476991149083
 22
149.8141083891879
 32
0.0
 13
131.6476991149083
 23
149.8141083891879
 33
0.0
  0
ELLIPSE
  5
31DB
330
17
100
AcDbEntity
  8
7
100
AcDbEllipse
 10
145.3168695057831
 20
148.4472768897923
 30
0.0
 11
0.1712252347122969
 21
-0.204058288611167
 31
0.0
210
0.0
220
0.0
230
-1.0
 40
0.8607148457589644
 41
0.0
 42
6.283185307179586
  0
ELLIPSE
  5
31DC
330
17
100
AcDbEntity
  8
7
100
AcDbEllipse
 10
143.8392398057136
 20
147.0551192287448
 30
0.0
 11
-2.874045595644957
 21
1.680000000000000E-14
 31
0.0
210
0.0
220
0.0
230
1.0
 40
0.1659962476938306
 41
0.0000000000000344
 42
1.803598146510193
  0
ELLIPSE
  5
31DD
330
17
100
AcDbEntity
  8
7
100
AcDbEllipse
 10
158.7309075941735
 20
144.1907707826829
 30
0.0
 11
4.406271153823166
 21
1.200000000000000E-14
 31
0.0
210
0.0
220
0.0
230
1.0
 40
0.1659962476938298
 41
3.399731470160681
 42
6.283185307179586
  0
LINE
  5
31DE
330
17
100
AcDbEntity
  8
7
100
AcDbLine
 10
149.9900828891209
 20
146.4679331174301
 30
0.0
 11
154.4706304000979
 21
144.0040516604524
 31
0.0
  0
LINE
  5
31DF
330
17
100
AcDbEntity
  8
7
100
AcDbLine
 10
151.7862786632893
 20
145.4801936837486
 30
0.0
 11
146.5474611264977
 21
146.4039385624936
 31
0.0
  0
LINE
  5
31E0
330
17
100
AcDbEntity
  8
7
100
AcDbLine
 10
149.2586551033994
 20
146.7088216923477
 30
0.0
 11
145.9319562808651
 21
147.2954084514515
 31
0.0
  0
LINE
  5
31E1
330
17
100
AcDbEntity
  8
7
100
AcDbLine
 10
146.5474611264978
 20
146.4039385624936
 30
0.0
 11
146.0550572499916
 21
146.3171144736601
 31
0.0
  0
LINE
  5
31E2
330
17
100
AcDbEntity
  8
7
100
AcDbLine
 10
146.061746378803
 20
147.2725229553562
 30
0.0
 11
146.061746378803
 21
146.318293947547
 31
0.0
  0
LINE
  5
31E3
330
17
100
AcDbEntity
  8
7
100
AcDbLine
 10
146.5474611264977
 20
147.1868783404097
 30
0.0
 11
146.5474611264977
 21
146.4039385624935
 31
0.0
  0
ARC
  5
31E4
330
17
100
AcDbEntity
  8
7
100
AcDbCircle
 10
148.7915084485242
 20
144.0595013614582
 30
0.0
 40
2.69019036739517
100
AcDbArc
 50
63.54241570273829
 51
80.0000000000014
  0
ELLIPSE
  5
31E5
330
17
100
AcDbEntity
  8
7
100
AcDbEllipse
 10
147.9015717868896
 20
148.9481120961177
 30
0.0
 11
0.1712252347122969
 21
-0.204058288611167
 31
0.0
210
0.0
220
0.0
230
-1.0
 40
0.8607148457589644
 41
0.0
 42
6.283185307179586
  0
LINE
  5
31E6
330
17
100
AcDbEntity
  8
7
100
AcDbLine
 10
164.6133076564405
 20
143.2184423899267
 30
0.0
 11
161.9407419548893
 21
143.6896878308262
 31
0.0
  0
LWPOLYLINE
  5
31E7
330
17
100
AcDbEntity
  8
TEXT
 48
6.0
100
AcDbPolyline
 90
        4
 70
     1
 43
0.0
 10
184.3165165019712
 20
121.2479382033043
 10
184.3165165019712
 20
119.0819931373495
 10
186.4824615679258
 20
119.0819931373495
 10
186.4824615679258
 20
121.2479382033043
  0
LWPOLYLINE
  5
31E8
330
17
100
AcDbEntity
  8
TEXT
 48
6.0
100
AcDbPolyline
 90
        4
 70
     1
 43
0.0
 10
184.3165165019712
 20
103.0886363835145
 10
184.3165165019712
 20
100.9226913175598
 10
186.4824615679258
 20
100.9226913175598
 10
186.4824615679258
 20
103.0886363835145
  0
LWPOLYLINE
  5
31EA
330
17
100
AcDbEntity
  8
TEXT
 48
6.0
100
AcDbPolyline
 90
        4
 70
     1
 43
0.0
 10
184.3165165019712
 20
114.7878381078565
 10
184.3165165019712
 20
112.6218930419018
 10
186.4824615679258
 20
112.6218930419018
 10
186.4824615679258
 20
114.7878381078565
  0
LINE
  5
31EB
330
17
100
AcDbEntity
  8
7
100
AcDbLine
 10
168.3509650369552
 20
112.2545709699779
 30
0.0
 11
167.3661572839431
 21
112.4282191476449
 31
0.0
  0
LINE
  5
31EC
330
17
100
AcDbEntity
  8
7
100
AcDbLine
 10
167.366157283943
 20
112.080922792311
 30
0.0
 11
168.3509650369552
 21
112.254570969978
 31
0.0
  0
LINE
  5
31ED
330
17
100
AcDbEntity
  8
7
100
AcDbLine
 10
165.3965417779187
 20
111.733626436977
 30
0.0
 11
166.381349530931
 21
111.9072746146441
 31
0.0
  0
LINE
  5
31EE
330
17
100
AcDbEntity
  8
7
100
AcDbLine
 10
166.381349530931
 20
116.2675109489936
 30
0.0
 11
167.3661572839436
 21
116.4411591266606
 31
0.0
  0
LWPOLYLINE
  5
31EF
330
17
100
AcDbEntity
  8
TEXT
 48
6.0
100
AcDbPolyline
 90
        4
 70
     1
 43
0.0
 10
190.4081637400988
 20
98.24110883231774
 10
190.4081637400988
 20
96.07516376636303
 10
192.5741088060534
 20
96.07516376636303
 10
192.5741088060534
 20
98.24110883231774
  0
TEXT
  5
31F0
330
17
100
AcDbEntity
  8
TEXT
 48
6.0
100
AcDbText
 10
194.789026592957
 20
96.22134120102073
 30
0.0
 40
1.85540461056
  1
ABS
100
AcDbText
  0
LWPOLYLINE
  5
31F1
330
17
100
AcDbEntity
  8
TEXT
 48
6.0
100
AcDbPolyline
 90
        4
 70
     1
 43
0.0
 10
190.4081637400988
 20
109.6467962237135
 10
190.4081637400988
 20
107.4808511577588
 10
192.5741088060534
 20
107.4808511577588
 10
192.5741088060534
 20
109.6467962237135
  0
LWPOLYLINE
  5
31F2
330
17
100
AcDbEntity
  8
TEXT
 48
6.0
100
AcDbPolyline
 90
        4
 70
     1
 43
0.0
 10
184.3165165019712
 20
136.9257197958903
 10
184.3165165019712
 20
134.7597747299356
 10
186.4824615679258
 20
134.7597747299356
 10
186.4824615679258
 20
136.9257197958903
  0
LWPOLYLINE
  5
31F3
330
17
100
AcDbEntity
  8
TEXT
 48
6.0
100
AcDbPolyline
 90
        4
 70
     1
 43
0.0
 10
184.3165165019712
 20
146.6344221888769
 10
184.3165165019712
 20
144.4684771229222
 10
186.4824615679258
 20
144.4684771229222
 10
186.4824615679258
 20
146.6344221888769
  0
ELLIPSE
  5
31F4
330
17
100
AcDbEntity
  8
7
100
AcDbEllipse
 10
166.2154465170663
 20
145.5104969329516
 30
0.0
 11
-4.406271153822586
 21
2.801000000000000E-13
 31
0.0
210
0.0
220
0.0
230
1.0
 40
0.1659962476938767
 41
1.430231047247765
 42
3.141592653589793
  0
LWPOLYLINE
  5
31F5
330
17
100
AcDbEntity
  8
TEXT
 48
6.0
100
AcDbPolyline
 90
        4
 70
     1
 43
0.0
 10
190.4081637400988
 20
126.850453976614
 10
190.4081637400988
 20
124.6845089106593
 10
192.5741088060534
 20
124.6845089106593
 10
192.5741088060534
 20
126.850453976614
  0
LWPOLYLINE
  5
31F6
330
17
100
AcDbEntity
  8
TEXT
 48
6.0
100
AcDbPolyline
 90
        4
 70
     1
 43
0.0
 10
190.4081637400988
 20
131.7846779117474
 10
190.4081637400988
 20
129.6187328457927
 10
192.5741088060534
 20
129.6187328457927
 10
192.5741088060534
 20
131.7846779117474
  0
LINE
  5
31F7
330
17
100
AcDbEntity
  8
7
100
AcDbLine
 10
165.5981154094527
 20
172.2370085112255
 30
0.0
 11
142.9759024272073
 21
176.2259150233286
 31
0.0
  0
LINE
  5
31F8
330
17
100
AcDbEntity
  8
7
100
AcDbLine
 10
164.6133076564405
 20
172.0633603335586
 30
0.0
 11
165.5981154094531
 21
172.2370085112256
 31
0.0
  0
LINE
  5
31F9
330
17
100
AcDbEntity
  8
7
100
AcDbLine
 10
164.6133076564405
 20
172.0633603335586
 30
0.0
 11
141.9910946741941
 21
176.0522668456614
 31
0.0
  0
LINE
  5
31FA
330
17
100
AcDbEntity
  8
7
100
AcDbLine
 10
144.7025771842207
 20
175.5741593214249
 30
0.0
 11
146.5474611264978
 21
175.2488565061256
 31
0.0
  0
LINE
  5
31FB
330
17
100
AcDbEntity
  8
7
100
AcDbLine
 10
144.5022955258261
 20
175.4358262038739
 30
0.0
 11
146.0617463788031
 21
175.1608529434053
 31
0.0
  0
ELLIPSE
  5
31FC
330
17
100
AcDbEntity
  8
7
100
AcDbEllipse
 10
143.839239805714
 20
175.9000371723767
 30
0.0
 11
-2.144612823469494
 21
3.335000000000000E-13
 31
0.0
210
0.0
220
0.0
230
1.0
 40
0.1659962476938311
 41
2.666941584253768
 42
8.268294416559677
  0
ELLIPSE
  5
31FD
330
17
100
AcDbEntity
  8
7
100
AcDbEllipse
 10
143.8392398057136
 20
175.9000371723768
 30
0.0
 11
2.874045595645124
 21
1.087000000000000E-13
 31
0.0
210
0.0
220
0.0
230
1.0
 40
0.1659962476938305
 41
-0.2931401064670247
 42
4.945190800099966
  0
LINE
  5
31FE
330
17
100
AcDbEntity
  8
DIM
100
AcDbLine
 10
130.5841067416551
 20
173.2003607341362
 30
0.0
 11
145.1115731235272
 21
170.638776449677
 31
0.0
  0
LINE
  5
31FF
330
17
100
AcDbEntity
  8
DIM
100
AcDbLine
 10
131.6476991149083
 20
173.0128207022559
 30
0.0
 11
131.6476991149083
 21
167.3199579485156
 31
0.0
  0
SOLID
  5
3200
330
17
100
AcDbEntity
  8
DIM
100
AcDbTrace
 10
131.2876991149083
 20
170.8528207022559
 30
0.0
 11
132.0308031129997
 21
170.7217914179201
 31
0.0
 12
131.6476991149083
 22
173.0128207022559
 32
0.0
 13
131.6476991149083
 23
173.0128207022559
 33
0.0
  0
ELLIPSE
  5
3201
330
17
100
AcDbEntity
  8
7
100
AcDbEllipse
 10
145.3168695057831
 20
160.8697358616084
 30
0.0
 11
0.1712252347122969
 21
-0.204058288611167
 31
0.0
210
0.0
220
0.0
230
-1.0
 40
0.8607148457589644
 41
0.0
 42
6.283185307179586
  0
ELLIPSE
  5
3202
330
17
100
AcDbEntity
  8
7
100
AcDbEllipse
 10
145.3168695057831
 20
173.2921948334245
 30
0.0
 11
0.1712252347122969
 21
-0.204058288611167
 31
0.0
210
0.0
220
0.0
230
-1.0
 40
0.8607148457589644
 41
0.0
 42
6.283185307179586
  0
LINE
  5
3203
330
17
100
AcDbEntity
  8
7
100
AcDbLine
 10
142.9759024272073
 20
176.2259150233286
 30
0.0
 11
141.9910946741947
 21
176.0522668456616
 31
0.0
  0
LINE
  5
3204
330
17
100
AcDbEntity
  8
7
100
AcDbLine
 10
141.9910946741939
 20
176.0522668456614
 30
0.0
 11
141.9910946741939
 21
175.7194348007763
 31
0.0
  0
LINE
  5
3205
330
17
100
AcDbEntity
  8
7
100
AcDbLine
 10
146.5474611264978
 20
175.2488565061256
 30
0.0
 11
146.5474611264977
 21
170.6026508755612
 31
0.0
  0
LINE
  5
3206
330
17
100
AcDbEntity
  8
7
100
AcDbLine
 10
146.0617463788031
 20
175.1608529434053
 30
0.0
 11
146.0617463788031
 21
170.5170062606147
 31
0.0
  0
ELLIPSE
  5
3207
330
17
100
AcDbEntity
  8
7
100
AcDbEllipse
 10
158.8747822470497
 20
167.4685607741055
 30
0.0
 11
-4.083436242503283
 21
0.0480519088141949
 31
0.0
210
0.0
220
0.0
230
1.0
 40
0.1565482623625098
 41
0.4247369936233901
 42
3.202767654871556
  0
ELLIPSE
  5
3208
330
17
100
AcDbEntity
  8
7
100
AcDbEllipse
 10
158.7309075941735
 20
167.3894830957509
 30
0.0
 11
-4.406271153823187
 21
0.0
 31
0.0
210
0.0
220
0.0
230
1.0
 40
0.165996247693831
 41
6.541324123750492
 42
10.2437345398294
  0
ELLIPSE
  5
3209
330
17
100
AcDbEntity
  8
7
100
AcDbEllipse
 10
147.9015717868896
 20
158.5474682526516
 30
0.0
 11
0.1712252347122969
 21
-0.204058288611167
 31
0.0
210
0.0
220
0.0
230
-1.0
 40
0.8607148457589644
 41
0.0
 42
6.283185307179586
  0
LINE
  5
320A
330
17
100
AcDbEntity
  8
7
100
AcDbLine
 10
149.9900828891209
 20
169.6666454304981
 30
0.0
 11
154.4706304000979
 21
167.2027639735204
 31
0.0
  0
LINE
  5
320B
330
17
100
AcDbEntity
  8
7
100
AcDbLine
 10
150.1531487637771
 20
169.8391121544425
 30
0.0
 11
155.151071118242
 21
167.2489182551769
 31
0.0
  0
LINE
  5
320C
330
17
100
AcDbEntity
  8
7
100
AcDbLine
 10
149.3222103364255
 20
170.1127735842051
 30
0.0
 11
146.5457196433058
 21
170.6023438050881
 31
0.0
  0
LINE
  5
320D
330
17
100
AcDbEntity
  8
7
100
AcDbLine
 10
149.2586551033994
 20
169.9075340054157
 30
0.0
 11
145.9319562808651
 21
170.4941207645195
 31
0.0
  0
ELLIPSE
  5
320E
330
17
100
AcDbEntity
  8
7
100
AcDbEllipse
 10
147.9015717868895
 20
168.1468244091855
 30
0.0
 11
0.1712252347122969
 21
-0.204058288611167
 31
0.0
210
0.0
220
0.0
230
-1.0
 40
0.8607148457589644
 41
0.0
 42
6.283185307179586
  0
LINE
  5
320F
330
17
100
AcDbEntity
  8
7
100
AcDbLine
 10
146.5474611264983
 20
170.6026508755614
 30
0.0
 11
145.9319562808657
 21
170.4941207645196
 31
0.0
  0
ARC
  5
3210
330
17
100
AcDbEntity
  8
7
100
AcDbCircle
 10
148.7915084485248
 20
167.103013615715
 30
0.0
 40
3.056190367393218
100
AcDbArc
 50
63.54241570273103
 51
80.00000000000648
  0
ARC
  5
3211
330
17
100
AcDbEntity
  8
7
100
AcDbCircle
 10
148.7915084485242
 20
167.2582136745262
 30
0.0
 40
2.69019036739517
100
AcDbArc
 50
63.54241570273829
 51
80.0000000000014
  0
LWPOLYLINE
  5
3212
330
17
100
AcDbEntity
  8
7
100
AcDbPolyline
 90
        3
 70
     0
 43
0.0
 10
162.9510398839943
 20
167.4596807803974
 42
0.13569233963496
 10
162.5190962473846
 20
167.6496443448577
 10
158.5511551129688
 20
168.3764443635596
  0
LINE
  5
3213
330
17
100
AcDbEntity
  8
7
100
AcDbLine
 10
161.7505743668476
 20
167.921931820522
 30
0.0
 11
158.862030378849
 21
168.4312600605694
 31
0.0
  0
LINE
  5
3214
330
17
100
AcDbEntity
  8
7
100
AcDbLine
 10
158.5511551129688
 20
168.3764443635596
 30
0.0
 11
158.5511551129688
 21
166.834944489082
 31
0.0
  0
LINE
  5
3215
330
17
100
AcDbEntity
  8
7
100
AcDbLine
 10
158.8620303788493
 20
168.4312600605693
 30
0.0
 11
158.5511551129688
 21
168.3764443635596
 31
0.0
  0
LINE
  5
3216
330
17
100
AcDbEntity
  8
7
100
AcDbLine
 10
146.5474611264978
 20
175.2488565061256
 30
0.0
 11
146.0550572499916
 21
175.1620324172922
 31
0.0
  0
LINE
  5
3217
330
17
100
AcDbEntity
  8
7
100
AcDbLine
 10
145.7467705002604
 20
175.7373362220655
 30
0.0
 11
147.53226887951
 21
175.4225046837925
 31
0.0
  0
LINE
  5
3218
330
17
100
AcDbEntity
  8
7
100
AcDbLine
 10
148.0246727560161
 20
175.509328772626
 30
0.0
 11
148.0246727560161
 21
175.3356805949593
 31
0.0
  0
LINE
  5
3219
330
17
100
AcDbEntity
  8
7
100
AcDbLine
 10
146.5906821579058
 20
175.7621800051551
 30
0.0
 11
148.0246727560161
 21
175.509328772626
 31
0.0
  0
LINE
  5
321A
330
17
100
AcDbEntity
  8
7
100
AcDbLine
 10
148.0246727560161
 20
175.509328772626
 30
0.0
 11
147.5322688795101
 21
175.4225046837925
 31
0.0
  0
ELLIPSE
  5
321B
330
17
100
AcDbEntity
  8
7
100
AcDbEllipse
 10
166.0907121534947
 20
168.7312032797385
 30
0.0
 11
-4.218505485988262
 21
0.017922695628657
 31
0.0
210
0.0
220
0.0
230
1.0
 40
0.1558748743067957
 41
1.454421151229381
 42
4.48397570395384
  0
ELLIPSE
  5
321C
330
17
100
AcDbEntity
  8
7
100
AcDbEllipse
 10
166.2154465170663
 20
168.7092092460195
 30
0.0
 11
-4.406271153823187
 21
0.0
 31
0.0
210
0.0
220
0.0
230
1.0
 40
0.165996247693831
 41
1.430231047247781
 42
4.463924424664647
  0
LINE
  5
321D
330
17
100
AcDbEntity
  8
7
100
AcDbLine
 10
165.5981154094527
 20
169.4287131276398
 30
0.0
 11
167.0486391808248
 21
169.3676251732441
 31
0.0
  0
LINE
  5
321E
330
17
100
AcDbEntity
  8
7
100
AcDbLine
 10
165.5981154094527
 20
169.4898050715655
 30
0.0
 11
167.2990189053869
 21
169.4181725225223
 31
0.0
  0
TEXT
  5
321F
330
17
100
AcDbEntity
  8
TEXT
 48
6.0
100
AcDbText
 10
184.6758931181156
 20
155.3627322483965
 30
0.0
 40
2.226485532672
  1
%%UOPTIONS
100
AcDbText
  0
LWPOLYLINE
  5
3220
330
17
100
AcDbEntity
  8
TEXT
 48
6.0
100
AcDbPolyline
 90
        4
 70
     1
 43
0.0
 10
191.1860987832759
 20
173.5418260207389
 10
191.1860987832759
 20
171.3758809547842
 10
193.3520438492305
 20
171.3758809547842
 10
193.3520438492305
 20
173.5418260207389
  0
TEXT
  5
3221
330
17
100
AcDbEntity
  8
TEXT
 48
6.0
100
AcDbText
 10
220.5669616361341
 20
171.522058389442
 30
0.0
 40
1.85540461056
  1
SINGLE
100
AcDbText
  0
LWPOLYLINE
  5
3222
330
17
100
AcDbEntity
  8
TEXT
 48
6.0
100
AcDbPolyline
 90
        4
 70
     1
 43
0.0
 10
216.1860987832759
 20
173.5418260207389
 10
216.1860987832759
 20
171.3758809547842
 10
218.3520438492305
 20
171.3758809547842
 10
218.3520438492305
 20
173.5418260207389
  0
LINE
  5
3223
330
17
100
AcDbEntity
  8
FRA
100
AcDbLine
 10
181.6583235867983
 20
185.996198546602
 30
0.0
 11
181.6583589519449
 21
86.55956417445984
 31
0.0
  0
TEXT
  5
3224
330
17
100
AcDbEntity
  8
TEXT
 48
6.0
100
AcDbText
 10
184.5653762017336
 20
181.7847148674981
 30
0.0
 40
1.85540461056
  1
%%UDOOR OPENING:
100
AcDbText
  0
LWPOLYLINE
  5
322E
330
17
100
AcDbEntity
  8
FRA
100
AcDbPolyline
 90
        4
 70
     1
 43
0.0
 10
6.000000238830466
 20
6.000000010005749
 10
246.0000002388307
 20
6.000000010005749
 10
246.0000002388309
 20
186.0000000100057
 10
6.000000238830921
 20
186.0000000100057
  0
HATCH
  5
33F6
330
17
100
AcDbEntity
  8
HATCH
100
AcDbHatch
 10
0.0
 20
0.0
 30
0.0
210
0.0
220
0.0
230
1.0
  2
ANSI31
 70
     0
 71
     1
 91
        2
 92
        7
 72
     1
 73
     1
 93
       15
 10
193.6455664387549
 20
48.55504870868593
 42
0.0
 10
197.6455664387549
 20
48.55504870868593
 42
-0.4142135623730951
 10
199.8955664387549
 20
46.30504870868592
 42
0.0
 10
199.8955664387549
 20
42.32242135594749
 42
0.0
 10
199.9396906292257
 20
42.32242135594749
 42
0.0
 10
200.7116939423965
 20
43.65957031797081
 42
0.0
 10
200.8955664387549
 20
43.6595703179708
 42
0.0
 10
200.8955664387549
 20
46.30504870868588
 42
0.4142135623730982
 10
197.6455664387549
 20
49.55504870868592
 42
0.0
 10
193.6455664387549
 20
49.55504870868592
 42
0.4142135623730951
 10
190.3955664387549
 20
46.30504870868592
 42
0.0
 10
190.3955664387549
 20
44.44375754389269
 42
0.0
 10
191.0628549556284
 20
44.44375754389269
 42
0.0
 10
191.3955664387549
 20
44.63584860823826
 42
0.0
 10
191.3955664387549
 20
46.30504870868592
 42
-0.4142135623730951
 97
        3
330
3183
330
3155
330
3184
 92
        7
 72
     1
 73
     1
 93
       13
 10
178.1455664387549
 20
48.55504870868593
 42
-0.4142135623730951
 10
180.3955664387549
 20
46.30504870868592
 42
0.0
 10
180.3955664387549
 20
44.27778215241554
 42
0.0
 10
180.6676127067061
 20
44.27778215241555
 42
0.0
 10
181.3955664387549
 20
43.01692930294769
 42
0.0
 10
181.3955664387549
 20
46.30504870868592
 42
0.4142135623730951
 10
178.1455664387549
 20
49.55504870868592
 42
0.0
 10
174.145566438755
 20
49.55504870868592
 42
0.4142135623730951
 10
170.895566438755
 20
46.30504870868592
 42
0.0
 10
170.8955664387549
 20
43.92291838765258
 42
0.0
 10
171.895566438755
 20
43.92291838765258
 42
0.0
 10
171.895566438755
 20
46.30504870868592
 42
-0.4142135623730951
 10
174.145566438755
 20
48.55504870868593
 42
0.0
 97
        3
330
3181
330
3155
330
3182
 75
     0
 76
     1
 52
0.0
 41
1.0
 77
     0
 78
     1
 53
45.0
 43
39.59738158745376
 44
0.0
 45
-0.0883883476483184
 46
0.0883883476483185
 79
     0
 47
0.0499876677655051
 98
        2
 10
193.8304338390398
 20
49.03515773533491
 10
177.4691442178109
 20
48.98516998768167
  0
LINE
  5
34BB
102
{ACAD_REACTORS
330
3CE6
102
}
330
17
100
AcDbEntity
  8
3
100
AcDbLine
 10
33.49247981667131
 20
55.79111369558821
 30
0.0
 11
66.69843641938051
 21
55.79110709096706
 31
0.0
  0
LINE
  5
34BC
102
{ACAD_REACTORS
330
3CE6
102
}
330
17
100
AcDbEntity
  8
3
100
AcDbLine
 10
33.49754937052543
 20
56.31711112447177
 30
0.0
 11
66.69843535706842
 21
56.31710425233048
 31
0.0
  0
HATCH
  5
34BD
330
17
100
AcDbEntity
  8
HATCH
100
AcDbHatch
 10
0.0
 20
0.0
 30
0.0
210
0.0
220
0.0
230
1.0
  2
ANSI31
 70
     0
 71
     0
 91
        1
 92
        7
 72
     1
 73
     1
 93
       14
 10
31.46197661742574
 20
61.09217458026804
 42
0.4142131926659154
 10
31.26197621350375
 20
61.29217392389269
 42
0.0
 10
27.21197621351201
 20
61.29216574445066
 42
1.0
 10
27.21197722331949
 20
60.79216574445168
 42
0.0
 10
30.53848595321015
 20
60.25774547166403
 42
-0.3699022623684961
 10
30.96197930056181
 20
59.76363528982206
 42
0.0
 10
30.96199237042704
 20
56.29217331802438
 42
0.0
 10
30.96200544028566
 20
52.82071309155703
 42
-0.3699032544399392
 10
30.53851408876373
 20
52.32659945380131
 42
0.0
 10
27.21200751754984
 20
51.79216574448226
 42
1.0
 10
27.21200852735732
 20
51.29216574448328
 42
0.0
 10
31.26200852734886
 20
51.29217392392532
 42
0.4142139320800817
 10
31.46200812342458
 20
51.49217458029984
 42
0.0
 10
31.46199237042601
 20
56.29217432783214
 42
0.0
 97
        0
 75
     0
 76
     1
 52
90.0
 41
2.0
 77
     0
 78
     1
 53
135.0
 43
12.37427499123507
 44
-498.8520187117301
 45
-0.1767766952966369
 46
-0.1767766952966369
 79
     0
 47
0.0138700394879944
 98
        1
 10
29.53953168537985
 20
60.75126773130917
  0
LWPOLYLINE
  5
34BE
330
17
100
AcDbEntity
  8
STEEL
100
AcDbPolyline
 90
       14
 70
     1
 43
0.0
 10
31.26200852734863
 20
51.29217392392532
 42
0.4142135623730993
 10
31.46200812342543
 20
51.49217432784777
 10
31.46199237042601
 20
56.29217432783214
 10
31.4619766174266
 20
61.0921743278164
 42
0.4142135623730993
 10
31.26197621350367
 20
61.29217392389269
 10
27.21197621351218
 20
61.29216574445066
 42
1.000000000000682
 10
27.21197722331986
 20
60.79216574445168
 10
30.53848595319949
 20
60.25774547166573
 42
-0.3699027584099411
 10
30.96197930056511
 20
59.76363441715712
 10
30.96199237042704
 20
56.29217331802438
 10
30.96200544028896
 20
52.82071221889175
 42
-0.3699027584099411
 10
30.53851408875529
 20
52.32659945379994
 10
27.2120075175495
 20
51.79216574448226
 42
1.000000000000682
 10
27.21200852735715
 20
51.29216574448328
  0
ARC
  5
34BF
330
17
100
AcDbEntity
  8
6
 62
     4
100
AcDbCircle
 10
36.58699237043697
 20
52.63761180736806
 30
0.0
 40
1.0
100
AcDbArc
 50
270.0
 51
0.0
  0
LINE
  5
34C0
330
17
100
AcDbEntity
  8
6
 62
     4
100
AcDbLine
 10
32.08699237043695
 20
51.63761180736817
 30
0.0
 11
32.08699237043695
 21
60.94673017471514
 31
0.0
  0
LINE
  5
34C1
330
17
100
AcDbEntity
  8
6
 62
     4
100
AcDbLine
 10
31.46199237043695
 20
51.63761180736817
 30
0.0
 11
31.46199237043695
 21
60.94673017471514
 31
0.0
  0
LINE
  5
34C2
330
17
100
AcDbEntity
  8
6
 62
     4
100
AcDbLine
 10
31.46199237043695
 20
51.63761180736817
 30
0.0
 11
36.58699237043695
 21
51.63761180736817
 31
0.0
  0
LWPOLYLINE
  5
34C3
102
{ACAD_REACTORS
330
34C4
102
}
330
17
100
AcDbEntity
  8
010285
100
AcDbPolyline
 90
       30
 70
     1
 43
0.0
 10
32.67262988199171
 20
56.38011083955264
 10
32.52026574577514
 20
56.38011083955264
 42
-0.5561519852482084
 10
32.46424638870279
 20
56.47032512526398
 42
-0.2852215072559797
 10
32.814367370437
 20
56.68773583955267
 10
32.90500856771755
 20
56.68773583955267
 42
0.3505742367666946
 10
32.96597405382759
 20
56.73647141063402
 42
-0.6740362460580342
 10
36.61569975049137
 20
57.33509261355035
 42
0.2616372050951821
 10
36.66907404184645
 20
57.30511083955271
 10
38.10657404184548
 20
57.30511083955271
 42
-0.4142135623730951
 10
38.16907404184549
 20
57.24261083955271
 10
38.16907404184549
 20
56.87961083955265
 42
-0.4142135623730951
 10
38.10657404184548
 20
56.81711083955265
 10
36.36939554046024
 20
56.81711083955265
 42
-0.3067530778334079
 10
36.31135941550083
 20
56.85641475799873
 42
5.196400291882377
 10
36.31135941550094
 20
55.73780692110672
 42
-0.3067530778335235
 10
36.36939554046036
 20
55.77711083955269
 10
38.10657404184551
 20
55.77711083955269
 42
-0.4142135623730951
 10
38.16907404184551
 20
55.71461083955269
 10
38.16907404184549
 20
55.35161083955275
 42
-0.4142135623730951
 10
38.10657404184548
 20
55.28911083955275
 10
36.66907404184549
 20
55.28911083955275
 42
0.2616372050950723
 10
36.61569975049043
 20
55.25912906555511
 42
-0.6740362460579068
 10
32.96597405382764
 20
55.8577502684712
 42
0.3505742367666667
 10
32.90500856771852
 20
55.90648583955267
 10
32.814367370437
 20
55.90648583955267
 42
-0.2852215072529909
 10
32.46424638870509
 20
56.12389655383772
 42
-0.5561519852514923
 10
32.52026574578344
 20
56.2141108395527
 10
32.67262988199006
 20
56.2141108395527
 42
-0.195510457690489
 10
32.71624141689365
 20
56.19638007031842
 42
2.370188924129883
 10
32.7162414169055
 20
56.39784160877543
 42
-0.195510457687567
  0
HATCH
  5
34C4
330
17
100
AcDbEntity
  8
HATCH
100
AcDbHatch
 10
0.0
 20
0.0
 30
0.0
210
0.0
220
0.0
230
1.0
  2
ANSI31
 70
     0
 71
     1
 91
        1
 92
        7
 72
     1
 73
     1
 93
       24
 10
36.31135941550133
 20
56.85641475799746
 42
0.3067530778336808
 10
36.36939554046167
 20
56.81711083955265
 42
0.0
 10
38.10657404184548
 20
56.81711083955265
 42
0.4142135623730951
 10
38.16907404184549
 20
56.87961083955265
 42
0.0
 10
38.16907404184549
 20
57.24261083955271
 42
0.4142135623730951
 10
38.10657404184548
 20
57.30511083955271
 42
0.0
 10
36.63360818123888
 20
57.30511083955271
 42
0.6942403072845869
 10
32.95085352293084
 20
56.66311551275018
 42
0.3845052555666151
 10
32.46424638870183
 20
56.47032512526206
 42
0.5561519852463548
 10
32.52026574577693
 20
56.38011083955264
 42
0.0
 10
32.67262988201059
 20
56.38011083955264
 42
0.1955104576538314
 10
32.71624141691321
 20
56.39784160878295
 42
-2.370188923976178
 10
32.7162414168953
 20
56.19638007031682
 42
0.1955104576999576
 10
32.67262988199008
 20
56.2141108395527
 42
0.0
 10
32.52026574578305
 20
56.2141108395527
 42
0.5561519852519023
 10
32.46424638870529
 20
56.1238965538373
 42
0.384505255561596
 10
32.95085352293088
 20
55.93110616635504
 42
0.6942403072844621
 10
36.63360818123795
 20
55.28911083955275
 42
0.0
 10
38.10657404184548
 20
55.28911083955275
 42
0.4142135623730618
 10
38.16907404184549
 20
55.35161083955274
 42
0.0
 10
38.16907404184551
 20
55.71461083955268
 42
0.4142135623731284
 10
38.10657404184551
 20
55.77711083955269
 42
0.0
 10
36.3693955404617
 20
55.77711083955269
 42
0.3067530778337271
 10
36.31135941550142
 20
55.73780692110792
 42
-5.196400291894747
 97
        1
330
34C3
 75
     0
 76
     1
 52
90.0
 41
2.0
 77
     0
 78
     1
 53
135.0
 43
8.429550981868864
 44
-498.8400882797259
 45
-0.1767766952966369
 46
-0.1767766952966369
 79
     0
 47
0.0113163697658654
 98
        1
 10
33.18493306574116
 20
56.44814404909261
  0
LINE
  5
34C5
330
17
100
AcDbEntity
  8
6
 62
     4
100
AcDbLine
 10
31.46199237043695
 20
60.94673017471514
 30
0.0
 11
36.58699237043695
 21
60.94673017471514
 31
0.0
  0
LINE
  5
34C6
330
17
100
AcDbEntity
  8
6
 62
     4
100
AcDbLine
 10
37.58699237043695
 20
52.63761180736818
 30
0.0
 11
37.58699237043695
 21
55.28179890132385
 31
0.0
  0
LINE
  5
34C7
330
17
100
AcDbEntity
  8
6
 62
     4
100
AcDbLine
 10
37.58699237043695
 20
57.29779890132381
 30
0.0
 11
37.58699237043695
 21
59.94673017471514
 31
0.0
  0
POINT
  5
34C8
330
17
100
AcDbEntity
  8
DEFPOINTS
  6
BYBLOCK
 62
     0
100
AcDbPoint
 10
37.58699237043695
 20
59.94673017471514
 30
0.0
  0
ARC
  5
34C9
330
17
100
AcDbEntity
  8
6
 62
     4
100
AcDbCircle
 10
36.58699237043697
 20
59.94673017471503
 30
0.0
 40
1.0
100
AcDbArc
 50
0.0
 51
90.0
  0
HATCH
  5
34CA
330
17
100
AcDbEntity
  8
HATCH
100
AcDbHatch
 10
0.0
 20
0.0
 30
0.0
210
0.0
220
0.0
230
1.0
  2
ANSI31
 70
     0
 71
     0
 91
        1
 92
        7
 72
     0
 73
     1
 93
        7
 10
38.16907404184585
 20
56.81711083983073
 10
38.1065740418458
 20
56.81711084015667
 10
38.1065740418458
 20
56.81711083955299
 10
36.36939554046061
 20
56.81711083955299
 10
33.49754937958298
 20
56.8171108641903
 10
33.49754937958293
 20
56.31711112447177
 10
38.16907404184585
 20
56.31710964057352
 97
        0
 75
     0
 76
     1
 52
90.0
 41
4.0
 77
     0
 78
     1
 53
135.0
 43
-411.5704345191862
 44
-497.7069075223422
 45
-0.3535533905932738
 46
-0.3535533905932737
 79
     0
 47
0.0044659255100102
 98
        1
 10
36.83687442940832
 20
56.61679721753781
  0
LINE
  5
34CB
102
{ACAD_REACTORS
330
3CE6
102
}
330
17
100
AcDbEntity
  8
3
100
AcDbLine
 10
33.49754937958298
 20
56.81711083983095
 30
0.0
 11
33.49754937958292
 21
55.777110839831
 31
0.0
  0
LINE
  5
34CC
330
17
100
AcDbEntity
  8
3
100
AcDbLine
 10
33.49754937958298
 20
56.8171108641903
 30
0.0
 11
38.16907404184585
 21
56.81711083983073
 31
0.0
  0
LINE
  5
34CD
330
17
100
AcDbEntity
  8
3
100
AcDbLine
 10
38.16907404184585
 20
56.81711083983073
 30
0.0
 11
38.16907404184585
 21
56.31711066100497
 31
0.0
  0
LINE
  5
34CE
330
17
100
AcDbEntity
  8
3
100
AcDbLine
 10
101.4264138378879
 20
56.31711112447177
 30
0.0
 11
68.19840814185493
 21
56.31710425233014
 31
0.0
  0
LINE
  5
34CF
330
17
100
AcDbEntity
  8
3
100
AcDbLine
 10
101.431483391742
 20
55.79111369558821
 30
0.0
 11
68.19840707954295
 21
55.79110709096695
 31
0.0
  0
LINE
  5
34D0
102
{ACAD_REACTORS
330
3CE6
102
}
330
17
100
AcDbEntity
  8
3
100
AcDbLine
 10
66.69843535706848
 20
56.31710425233014
 30
0.0
 11
66.69843641938046
 21
55.79110709096695
 31
0.0
  0
LINE
  5
34D1
330
17
100
AcDbEntity
  8
3
100
AcDbLine
 10
68.19840814185493
 20
56.31710425233014
 30
0.0
 11
68.19840707954295
 21
55.79110709096695
 31
0.0
  0
ARC
  5
34D2
330
17
100
AcDbEntity
  8
6
 62
     4
100
AcDbCircle
 10
98.33698581021395
 20
52.63761180736806
 30
0.0
 40
1.0
100
AcDbArc
 50
180.0
 51
270.0
  0
LINE
  5
34D3
330
17
100
AcDbEntity
  8
6
 62
     4
100
AcDbLine
 10
103.461985810214
 20
51.63761180736817
 30
0.0
 11
103.461985810214
 21
60.94673017471514
 31
0.0
  0
LINE
  5
34D4
330
17
100
AcDbEntity
  8
6
 62
     4
100
AcDbLine
 10
102.836985810214
 20
51.63761180736817
 30
0.0
 11
102.836985810214
 21
60.94673017471514
 31
0.0
  0
LWPOLYLINE
  5
34D5
330
17
100
AcDbEntity
  8
STEEL
100
AcDbPolyline
 90
       14
 70
     1
 43
0.0
 10
103.6619696533023
 20
51.29217392392532
 42
-0.4142135623730993
 10
103.4619700572255
 20
51.49217432784777
 10
103.4619858102249
 20
56.29217432783214
 10
103.4620015632243
 20
61.0921743278164
 42
-0.4142135623730993
 10
103.6620019671473
 20
61.29217392389269
 10
107.7120019671387
 20
61.29216574445066
 42
-1.000000000000682
 10
107.7120009573311
 20
60.79216574445168
 10
104.3854922274515
 20
60.25774547166573
 42
0.3699027584099411
 10
103.9619988800858
 20
59.76363441715712
 10
103.9619858102239
 20
56.29217331802438
 10
103.961972740362
 20
52.82071221889175
 42
0.3699027584099411
 10
104.3854640918957
 20
52.32659945379994
 10
107.7119706631014
 20
51.79216574448226
 42
-1.000000000000682
 10
107.7119696532938
 20
51.29216574448328
  0
HATCH
  5
34D6
330
17
100
AcDbEntity
  8
HATCH
100
AcDbHatch
 10
0.0
 20
0.0
 30
0.0
210
0.0
220
0.0
230
1.0
  2
ANSI31
 70
     0
 71
     0
 91
        1
 92
        7
 72
     1
 73
     1
 93
       14
 10
103.4620015632252
 20
61.09217458026804
 42
-0.4142131926659154
 10
103.6620019671472
 20
61.29217392389269
 42
0.0
 10
107.7120019671389
 20
61.29216574445066
 42
-1.0
 10
107.7120009573314
 20
60.79216574445168
 42
0.0
 10
104.3854922274408
 20
60.25774547166403
 42
0.3699022623684961
 10
103.9619988800891
 20
59.76363528982206
 42
0.0
 10
103.9619858102239
 20
56.29217331802438
 42
0.0
 10
103.9619727403653
 20
52.82071309155703
 42
0.3699032544399392
 10
104.3854640918871
 20
52.32659945380131
 42
0.0
 10
107.7119706631011
 20
51.79216574448226
 42
-1.0
 10
107.7119696532936
 20
51.29216574448328
 42
0.0
 10
103.661969653302
 20
51.29217392392532
 42
-0.4142139320800817
 10
103.4619700572263
 20
51.49217458029984
 42
0.0
 10
103.4619858102249
 20
56.29217432783214
 42
0.0
 97
        0
 75
     0
 76
     1
 52
90.0
 41
2.0
 77
     0
 78
     1
 53
45.0
 43
122.5497031894158
 44
-498.8520187117301
 45
0.1767766952966369
 46
-0.1767766952966369
 79
     0
 47
0.0138700394879944
 98
        1
 10
105.3844464952711
 20
60.75126773130917
  0
LINE
  5
34D7
330
17
100
AcDbEntity
  8
6
 62
     4
100
AcDbLine
 10
103.461985810214
 20
51.63761180736817
 30
0.0
 11
98.33698581021402
 21
51.63761180736817
 31
0.0
  0
LWPOLYLINE
  5
34D8
102
{ACAD_REACTORS
330
34D9
102
}
330
17
100
AcDbEntity
  8
010285
100
AcDbPolyline
 90
       30
 70
     1
 43
0.0
 10
102.2513482986592
 20
56.38011083955264
 10
102.4037124348758
 20
56.38011083955264
 42
0.5561519852482084
 10
102.4597317919481
 20
56.47032512526398
 42
0.2852215072559797
 10
102.1096108102139
 20
56.68773583955267
 10
102.0189696129334
 20
56.68773583955267
 42
-0.3505742367666946
 10
101.9580041268233
 20
56.73647141063402
 42
0.6740362460580342
 10
98.30827843015958
 20
57.33509261355035
 42
-0.2616372050951821
 10
98.25490413880446
 20
57.30511083955271
 10
96.81740413880543
 20
57.30511083955271
 42
0.4142135623730951
 10
96.75490413880543
 20
57.24261083955271
 10
96.75490413880543
 20
56.87961083955265
 42
0.4142135623730951
 10
96.81740413880543
 20
56.81711083955265
 10
98.55458264019067
 20
56.81711083955265
 42
0.3067530778334079
 10
98.61261876515007
 20
56.85641475799873
 42
-5.196400291882377
 10
98.61261876514997
 20
55.73780692110672
 42
0.3067530778335235
 10
98.55458264019056
 20
55.77711083955269
 10
96.81740413880543
 20
55.77711083955269
 42
0.4142135623730951
 10
96.75490413880543
 20
55.71461083955269
 10
96.75490413880543
 20
55.35161083955275
 42
0.4142135623730951
 10
96.81740413880543
 20
55.28911083955275
 10
98.25490413880544
 20
55.28911083955275
 42
-0.2616372050950723
 10
98.30827843016048
 20
55.25912906555511
 42
0.6740362460579068
 10
101.9580041268233
 20
55.8577502684712
 42
-0.3505742367666667
 10
102.0189696129324
 20
55.90648583955267
 10
102.1096108102139
 20
55.90648583955267
 42
0.2852215072529909
 10
102.4597317919458
 20
56.12389655383772
 42
0.5561519852514923
 10
102.4037124348674
 20
56.2141108395527
 10
102.2513482986609
 20
56.2141108395527
 42
0.195510457690489
 10
102.2077367637572
 20
56.19638007031842
 42
-2.370188924129883
 10
102.2077367637454
 20
56.39784160877543
 42
0.195510457687567
  0
HATCH
  5
34D9
330
17
100
AcDbEntity
  8
HATCH
100
AcDbHatch
 10
0.0
 20
0.0
 30
0.0
210
0.0
220
0.0
230
1.0
  2
ANSI31
 70
     0
 71
     1
 91
        1
 92
        7
 72
     1
 73
     1
 93
       24
 10
98.61261876514952
 20
55.73780692110792
 42
0.3067530778337582
 10
98.55458264018922
 20
55.77711083955269
 42
0.0
 10
96.81740413880543
 20
55.77711083955269
 42
0.4142135623730951
 10
96.75490413880543
 20
55.71461083955269
 42
0.0
 10
96.75490413880543
 20
55.35161083955275
 42
0.4142135623730951
 10
96.81740413880543
 20
55.28911083955275
 42
0.0
 10
98.29036999941297
 20
55.28911083955275
 42
0.6942403072844581
 10
101.97312465772
 20
55.93110616635504
 42
0.3845052555616042
 10
102.4597317919456
 20
56.12389655383729
 42
0.5561519852518876
 10
102.4037124348678
 20
56.2141108395527
 42
0.0
 10
102.2513482986608
 20
56.2141108395527
 42
0.1955104576999281
 10
102.2077367637556
 20
56.19638007031682
 42
-2.370188923976178
 10
102.2077367637377
 20
56.39784160878295
 42
0.1955104576538609
 10
102.2513482986403
 20
56.38011083955264
 42
0.0
 10
102.403712434874
 20
56.38011083955264
 42
0.5561519852464232
 10
102.4597317919491
 20
56.47032512526209
 42
0.3845052555665942
 10
101.9731246577201
 20
56.66311551275018
 42
0.6942403072845791
 10
98.29036999941209
 20
57.30511083955271
 42
0.0
 10
96.81740413880543
 20
57.30511083955271
 42
0.4142135623730951
 10
96.75490413880543
 20
57.24261083955271
 42
0.0
 10
96.75490413880543
 20
56.87961083955265
 42
0.4142135623730951
 10
96.81740413880543
 20
56.81711083955265
 42
0.0
 10
98.55458264018924
 20
56.81711083955265
 42
0.3067530778336598
 10
98.61261876514959
 20
56.85641475799745
 42
-5.196400291894783
 97
        1
330
34D8
 75
     0
 76
     1
 52
90.0
 41
2.0
 77
     0
 78
     1
 53
45.0
 43
126.4944271987821
 44
-498.8400882797259
 45
0.1767766952966369
 46
-0.1767766952966369
 79
     0
 47
0.0113163697658654
 98
        1
 10
101.7390451149098
 20
56.44814404909261
  0
LINE
  5
34DA
330
17
100
AcDbEntity
  8
6
 62
     4
100
AcDbLine
 10
103.461985810214
 20
60.94673017471514
 30
0.0
 11
98.33698581021402
 21
60.94673017471514
 31
0.0
  0
LINE
  5
34DB
330
17
100
AcDbEntity
  8
6
 62
     4
100
AcDbLine
 10
97.336985810214
 20
52.63761180736818
 30
0.0
 11
97.336985810214
 21
55.28179890132385
 31
0.0
  0
ARC
  5
34DC
330
17
100
AcDbEntity
  8
6
 62
     4
100
AcDbCircle
 10
98.33698581021395
 20
59.94673017471503
 30
0.0
 40
1.0
100
AcDbArc
 50
90.0
 51
180.0
  0
POINT
  5
34DD
330
17
100
AcDbEntity
  8
DEFPOINTS
  6
BYBLOCK
 62
     0
100
AcDbPoint
 10
97.336985810214
 20
59.94673017471514
 30
0.0
  0
LINE
  5
34DE
330
17
100
AcDbEntity
  8
6
 62
     4
100
AcDbLine
 10
97.336985810214
 20
57.29779890132381
 30
0.0
 11
97.336985810214
 21
59.94673017471514
 31
0.0
  0
HATCH
  5
34DF
330
17
100
AcDbEntity
  8
HATCH
100
AcDbHatch
 10
0.0
 20
0.0
 30
0.0
210
0.0
220
0.0
230
1.0
  2
ANSI31
 70
     0
 71
     0
 91
        1
 92
        7
 72
     0
 73
     1
 93
        4
 10
101.4264138288302
 20
56.8171108641903
 10
96.75488916656751
 20
56.81711083983073
 10
96.75488916656747
 20
56.31710958852234
 10
101.4264138288303
 20
56.31711112447188
 97
        0
 75
     0
 76
     1
 52
90.0
 41
4.0
 77
     0
 78
     1
 53
135.0
 43
-387.6773563146148
 44
-497.7069075223422
 45
-0.3535533905932738
 46
-0.3535533905932737
 79
     0
 47
0.0048268077596283
 98
        1
 10
100.7420652989558
 20
56.48913578887887
  0
LINE
  5
34E0
330
17
100
AcDbEntity
  8
3
100
AcDbLine
 10
101.4264138288303
 20
56.81711083983095
 30
0.0
 11
101.4264138288304
 21
55.777110839831
 31
0.0
  0
LINE
  5
34E1
330
17
100
AcDbEntity
  8
3
100
AcDbLine
 10
96.75488916656754
 20
56.81711083983073
 30
0.0
 11
96.75488916656754
 21
56.31711066100497
 31
0.0
  0
LINE
  5
34E2
330
17
100
AcDbEntity
  8
3
100
AcDbLine
 10
101.4264138288303
 20
56.8171108641903
 30
0.0
 11
96.75488916656754
 21
56.81711083983073
 31
0.0
  0
DIMENSION
  5
34E3
330
17
100
AcDbEntity
  8
DIM
100
AcDbDimension
  2
*D3
 10
102.836985810214
 20
60.94673017471514
 30
0.0
 11
94.88238696210819
 21
64.27170861915675
 31
0.0
 70
    34
  1
90°
  3
STANDARD
100
AcDb2LineAngularDimension
 13
101.4264138378879
 23
56.31711112447177
 33
0.0
 14
68.19840814185493
 24
56.31710425233014
 34
0.0
 15
102.836985810214
 25
51.63761180736817
 35
0.0
 16
97.21223493311825
 26
66.05946416418624
 36
0.0
1001
ACAD
1000
DSTYLE
1002
{
1070
   271
1070
     0
1070
   287
1070
     0
1070
   271
1070
     0
1070
   287
1070
     0
1070
   271
1070
     0
1070
     3
1000
"
1070
    40
1040
12.0
1070
    42
1040
0.18
1070
   140
1040
0.188
1070
   141
1040
0.19
1070
   146
1040
0.5
1070
   176
1070
   256
1070
   177
1070
   256
1070
   178
1070
    30
1070
   271
1070
     2
1070
   272
1070
     2
1070
   289
1070
     0
1002
}
  0
DIMENSION
  5
34F2
330
17
100
AcDbEntity
  8
DIM
100
AcDbDimension
  2
*D4
 10
102.836985810214
 20
51.63761180736817
 30
0.0
 11
94.88238700663814
 21
48.31263340745651
 31
0.0
 70
    34
  1
90°
  3
STANDARD
100
AcDb2LineAngularDimension
 13
101.4264138378879
 23
56.26723085761155
 33
0.0
 14
68.19840814185493
 24
56.26723772975317
 34
0.0
 15
102.836985810214
 25
60.94673017471514
 35
0.0
 16
93.09463195347051
 26
50.64248173516358
 36
0.0
1001
ACAD
1000
DSTYLE
1002
{
1070
   271
1070
     0
1070
   287
1070
     0
1070
   271
1070
     0
1070
   287
1070
     0
1070
   271
1070
     0
1070
     3
1000
"
1070
    40
1040
12.0
1070
    42
1040
0.18
1070
   140
1040
0.188
1070
   141
1040
0.19
1070
   146
1040
0.5
1070
   176
1070
   256
1070
   177
1070
   256
1070
   178
1070
    30
1070
   271
1070
     2
1070
   272
1070
     2
1070
   289
1070
     0
1002
}
  0
DIMENSION
  5
3522
330
17
100
AcDbEntity
  8
DIM
100
AcDbDimension
  2
*D5
 10
66.69843535706848
 20
63.52871293527278
 30
0.0
 11
54.14369249992562
 21
63.52871293527278
 31
0.0
 70
    32
  1
1/2" GAP
  3
STANDARD
100
AcDbAlignedDimension
 13
68.19840814185493
 23
56.31710425233014
 33
0.0
 14
66.69843535706848
 24
56.31710425233014
 34
0.0
100
AcDbRotatedDimension
1001
ACAD
1000
DSTYLE
1002
{
1070
   287
1070
     0
1070
   287
1070
     0
1070
     3
1000
"
1070
    40
1040
12.0
1070
    42
1040
0.18
1070
   140
1040
0.188
1070
   141
1040
0.19
1070
   146
1040
0.5
1070
   176
1070
   256
1070
   177
1070
   256
1070
   178
1070
    30
1070
   271
1070
     2
1070
   272
1070
     2
1070
   289
1070
     0
1002
}
  0
TEXT
  5
3919
330
17
100
AcDbEntity
  8
TEXT
 48
6.0
100
AcDbText
 10
191.1769987485922
 20
162.637251414823
 30
0.0
 40
1.85540461056
  1
%%UCOLOR%%U: ______
100
AcDbText
  0
TEXT
  5
3A7A
330
17
100
AcDbEntity
  8
TBTEXT
100
AcDbText
 10
134.4928762691639
 20
27.9885907240342
 30
0.0
 40
1.387177873416311
  1
S. S. QUOTE REF. #%%U                        
 41
0.9
  7
SUPERFONT
100
AcDbText
  0
TEXT
  5
3A7B
330
17
100
AcDbEntity
  8
TBTEXT
100
AcDbText
 10
134.4928762691639
 20
10.08632015911798
 30
0.0
 40
1.387177873416311
  1
DATE: %%U                                   
 41
0.9
  7
SUPERFONT
100
AcDbText
  0
TEXT
  5
3A7C
330
17
100
AcDbEntity
  8
TBTEXT
100
AcDbText
 10
134.4928762691639
 20
14.80413531670587
 30
0.0
 40
1.387177873416311
  1
P/O No.:%%U                                 
 41
0.9
  7
SUPERFONT
100
AcDbText
  0
TEXT
  5
3A7D
330
17
100
AcDbEntity
  8
TBTEXT
100
AcDbText
 10
134.4928762691639
 20
18.96424818249863
 30
0.0
 40
1.387177873416311
  1
APPROVED BY: %%U                            
 41
0.9
  7
SUPERFONT
100
AcDbText
  0
TEXT
  5
3A7E
330
17
100
AcDbEntity
  8
TBTEXT
100
AcDbText
 10
134.4928762691639
 20
23.24769726453894
 30
0.0
 40
1.387177873416311
  1
CUSTOMER %%U                               
 41
0.9
  7
SUPERFONT
100
AcDbText
  0
LWPOLYLINE
  5
3A7F
330
17
100
AcDbEntity
  8
FRA
100
AcDbPolyline
 90
        4
 70
     1
 43
0.0
 10
133.3594753957329
 20
6.000000244653883
 10
185.7968905230705
 20
6.000000244653883
 10
185.7968905230705
 20
32.39244786853976
 10
133.3594753957329
 20
32.39244786853976
  0
LINE
  5
3A80
330
17
100
AcDbEntity
  8
FRA
100
AcDbLine
 10
185.7968902022941
 20
6.000000274136596
 30
0.0
 11
185.7968902022941
 21
32.39244786853976
 31
0.0
  0
LINE
  5
3A81
330
17
100
AcDbEntity
  8
FRA
100
AcDbLine
 10
185.7968905665032
 20
6.000000240661961
 30
0.0
 11
185.7968905665032
 21
32.39244783506513
 31
0.0
  0
HATCH
  5
3CDD
330
17
100
AcDbEntity
  8
HATCH
100
AcDbHatch
 10
0.0
 20
0.0
 30
0.0
210
0.0
220
0.0
230
1.0
  2
ANSI31
 70
     0
 71
     0
 91
        1
 92
        7
 72
     0
 73
     1
 93
        4
 10
101.4264138288303
 20
56.31711112447177
 10
68.19840814185493
 20
56.31710425233013
 10
68.19840707954293
 20
55.79110709096693
 10
101.4264138288303
 20
55.79111369458069
 97
        0
 75
     0
 76
     1
 52
0.0
 41
4.0
 77
     0
 78
     1
 53
45.0
 43
0.0
 44
-4.750168527469895
 45
-0.3535533905932737
 46
0.3535533905932738
 79
     0
 47
0.0873545184780072
 98
        1
 10
72.0905120158511
 20
56.06768059921932
  0
HATCH
  5
3CE6
330
17
100
AcDbEntity
  8
HATCH
100
AcDbHatch
 10
0.0
 20
0.0
 30
0.0
210
0.0
220
0.0
230
1.0
  2
ANSI31
 70
     0
 71
     1
 91
        1
 92
        7
 72
     0
 73
     1
 93
        4
 10
33.49754937958294
 20
56.31711112447176
 10
33.49754937958292
 20
55.79111369457987
 10
66.69843641938046
 20
55.79110709096706
 10
66.69843535706848
 20
56.31710425233047
 97
        4
330
34BC
330
34CB
330
34BB
330
34D0
 75
     0
 76
     1
 52
0.0
 41
4.0
 77
     0
 78
     1
 53
45.0
 43
0.0
 44
-4.750168527469895
 45
-0.3535533905932737
 46
0.3535533905932738
 79
     0
 47
0.0873545184780072
 98
        1
 10
52.86128754066226
 20
56.07142374274781
  0
INSERT
  5
3D94
330
17
100
AcDbEntity
  8
0
100
AcDbBlockReference
  2
SSLOGO_NEW
 10
19.78804552326875
 20
-10.76529436983639
 30
0.0
 41
21.25764000000014
 42
21.25763999999997
 43
21.25764
  0
TEXT
  5
3D95
330
17
100
AcDbEntity
  8
TEXT
100
AcDbText
 10
14.48737506032222
 20
16.43719536623087
 30
0.0
 40
1.8182965183488
  1
*** RECOMMENDED FRAMING REQUIREMENTS:
100
AcDbText
  0
TEXT
  5
3D96
330
17
100
AcDbEntity
  8
TEXT
100
AcDbText
 10
14.48737506032222
 20
13.4194238870071
 30
0.0
 40
1.8182965183488
  1
1/8" THICK x 4" WIDE FACE STEEL FRAME MOUNTED
100
AcDbText
  0
TEXT
  5
3D97
330
17
100
AcDbEntity
  8
TEXT
100
AcDbText
 10
14.48737506032222
 20
10.40165240778334
 30
0.0
 40
1.8182965183488
  1
TO A SOLID FOUNDATION.
100
AcDbText
  0
LWPOLYLINE
  5
3D98
330
17
100
AcDbEntity
  8
FRA
 48
6.0
100
AcDbPolyline
 90
        4
 70
     1
 43
0.0
 10
5.999999828571503
 20
6.000000213365645
 10
245.9999998285715
 20
6.000000213365645
 10
245.9999998285715
 20
186.0000002133657
 10
5.999999828571503
 20
186.0000002133657
  0
ENDSEC
  0
SECTION
  2
OBJECTS
  0
DICTIONARY
  5
C
330
0
100
AcDbDictionary
  3
ACAD_COLOR
350
3ED1
  3
ACAD_GROUP
350
D
  3
ACAD_LAYOUT
350
2FA7
  3
ACAD_MATERIAL
350
3ED0
  3
ACAD_MLEADERSTYLE
350
3F66
  3
ACAD_MLINESTYLE
350
1A
  3
ACAD_PLOTSETTINGS
350
2FA8
  3
ACAD_SCALELIST
350
3F0E
  3
ACAD_VISUALSTYLE
350
3F33
  3
ACDBHEADERROUNDTRIPXREC
350
3FA6
  3
ACDBVARIABLEDICTIONARY
350
41
  3
DRAWINGVARIABLESDICT
350
2528
  0
DICTIONARY
  5
3ED1
102
{ACAD_REACTORS
330
C
102
}
330
C
100
AcDbDictionary
  0
DICTIONARY
  5
D
102
{ACAD_REACTORS
330
C
102
}
330
C
100
AcDbDictionary
  0
DICTIONARY
  5
2FA7
102
{ACAD_REACTORS
330
C
102
}
330
C
100
AcDbDictionary
  0
DICTIONARY
  5
3ED0
102
{ACAD_REACTORS
330
C
102
}
330
C
100
AcDbDictionary
  3
BYBLOCK
350
3F31
  3
BYLAYER
350
3F30
  3
GLOBAL
350
3F32
  0
DICTIONARY
  5
3F66
102
{ACAD_REACTORS
330
C
102
}
330
C
100
AcDbDictionary
  0
DICTIONARY
  5
1A
102
{ACAD_REACTORS
330
C
102
}
330
C
100
AcDbDictionary
  3
STANDARD
350
1B
  0
DICTIONARY
  5
2FA8
102
{ACAD_REACTORS
330
C
102
}
330
C
100
AcDbDictionary
  0
DICTIONARY
  5
3F0E
102
{ACAD_REACTORS
330
C
102
}
330
C
100
AcDbDictionary
  3
A0
350
3F0F
  3
A1
350
3F10
  3
A2
350
3F11
  3
A3
350
3F12
  3
A4
350
3F13
  3
A5
350
3F14
  3
A6
350
3F15
  3
A7
350
3F16
  3
A8
350
3F17
  3
A9
350
3F18
  3
B0
350
3F19
  3
B1
350
3F1A
  3
B2
350
3F1B
  3
B3
350
3F1C
  3
B4
350
3F1D
  3
B5
350
3F1E
  3
B6
350
3F1F
  3
B7
350
3F20
  3
B8
350
3F21
  3
B9
350
3F22
  3
C0
350
3F23
  3
C1
350
3F24
  3
C2
350
3F25
  3
C3
350
3F26
  3
C4
350
3F27
  3
C5
350
3F28
  3
C6
350
3F29
  3
C7
350
3F2A
  3
C8
350
3F2B
  3
C9
350
3F2C
  3
D0
350
3F2D
  3
D1
350
3F2E
  3
D2
350
3F2F
  0
DICTIONARY
  5
3F33
102
{ACAD_REACTORS
330
C
102
}
330
C
100
AcDbDictionary
  3
2DWIREFRAME
350
3F38
  3
3D_HIDDEN
350
3F3A
  3
3DWIREFRAME
350
3F39
  3
BASIC
350
3F3B
  3
BRIGHTEN
350
3F3F
  3
COLORCHANGE
350
3F43
  3
CONCEPTUAL
350
3F3D
  3
DIM
350
3F3E
  3
FACEPATTERN
350
3F42
  3
FLAT
350
3F34
  3
FLATWITHEDGES
350
3F35
  3
GOURAUD
350
3F36
  3
GOURAUDWITHEDGES
350
3F37
  3
LINEPATTERN
350
3F41
  3
REALISTIC
350
3F3C
  3
THICKEN
350
3F40
  0
DICTIONARY
  5
3FA6
102
{ACAD_REACTORS
330
C
102
}
330
C
100
AcDbDictionary
  3
CEPSNTYPE
350
3FAF
  3
COLORDICT
350
3FC7
  3
DIMSTYLEDATA
350
3FC5
  3
FINGERPRINTGUID
350
3FB0
  3
HYPERLINKBASE
350
3FA9
  3
INSUNITS
350
3FAE
  3
LAYOUTDICT
350
3FAB
  3
LWETCUNION
350
3FAD
  3
MATERIALDICT
350
3FC8
  3
PLOTSETDICT
350
3FAC
  3
PSVPSCALE
350
3FB2
  3
PUCSBASE
350
3FB5
  3
PUCSORGBACK
350
3FBB
  3
PUCSORGBOTTOM
350
3FB7
  3
PUCSORGFRONT
350
3FBA
  3
PUCSORGLEFT
350
3FB8
  3
PUCSORGRIGHT
350
3FB9
  3
PUCSORGTOP
350
3FB6
  3
PUCSORTHOREF
350
3FB3
  3
PUCSORTHOVIEW
350
3FB4
  3
STYLESHEET
350
3FAA
  3
TSTACKALIGN
350
3FA7
  3
TSTACKSIZE
350
3FA8
  3
UCSBASE
350
3FBE
  3
UCSORGBACK
350
3FC4
  3
UCSORGBOTTOM
350
3FC0
  3
UCSORGFRONT
350
3FC3
  3
UCSORGLEFT
350
3FC1
  3
UCSORGRIGHT
350
3FC2
  3
UCSORGTOP
350
3FBF
  3
UCSORTHOREF
350
3FBC
  3
UCSORTHOVIEW
350
3FBD
  3
VERSIONGUID
350
3FB1
  0
DICTIONARY
  5
41
102
{ACAD_REACTORS
330
C
102
}
330
C
100
AcDbDictionary
  3
CANNOSCALE
350
3FC6
  3
CTABLESTYLE
350
3EEA
  3
DIMADEC
350
42
  3
DIMASSOC
350
3EEB
  3
HIDETEXT
350
3F67
  3
PROJECTNAME
350
3EEC
  3
SORTENTS
350
3028
  3
XCLIPFRAME
350
3F68
  0
DICTIONARY
  5
2528
102
{ACAD_REACTORS
330
C
102
}
330
C
100
AcDbDictionary
1001
DRAWINGVARIABLESXDATA
1000
POLARANG
1000
0.523599
1000
POLARDIST
1000
0.250000
1000
POLARMODE
1000
3
  0
MATERIAL
  5
3F31
102
{ACAD_REACTORS
330
3ED0
102
}
102
{ACAD_XDICTIONARY
360
3FCB
102
}
330
3ED0
100
AcDbMaterial
  1
ByBlock
  0
MATERIAL
  5
3F30
102
{ACAD_REACTORS
330
3ED0
102
}
102
{ACAD_XDICTIONARY
360
3FC9
102
}
330
3ED0
100
AcDbMaterial
  1
ByLayer
  0
MATERIAL
  5
3F32
102
{ACAD_REACTORS
330
3ED0
102
}
102
{ACAD_XDICTIONARY
360
3FCD
102
}
330
3ED0
100
AcDbMaterial
  1
Global
  0
MLINESTYLE
  5
1B
102
{ACAD_REACTORS
330
1A
102
}
330
1A
100
AcDbMlineStyle
  2
STANDARD
 70
     0
  3

 62
   256
 51
90.0
 52
90.0
 71
     2
 49
0.5
 62
   256
  6
BYLAYER
 49
-0.5
 62
   256
  6
BYLAYER
  0
ACAD_PROXY_OBJECT
  5
3F0F
102
{ACAD_REACTORS
330
3F0E
102
}
330
3F0E
100
AcDbProxyObject
 90
      499
 91
      503
 93
       41
310
903313A31580
  0
ACAD_PROXY_OBJECT
  5
3F10
102
{ACAD_REACTORS
330
3F0E
102
}
330
3F0E
100
AcDbProxyObject
 90
      499
 91
      503
 93
      105
310
903313A324000000000000004000
  0
ACAD_PROXY_OBJECT
  5
3F11
102
{ACAD_REACTORS
330
3F0E
102
}
330
3F0E
100
AcDbProxyObject
 90
      499
 91
      503
 93
      105
310
903313A344000000000000104000
  0
ACAD_PROXY_OBJECT
  5
3F12
102
{ACAD_REACTORS
330
3F0E
102
}
330
3F0E
100
AcDbProxyObject
 90
      499
 91
      503
 93
      105
310
903313A354000000000000144000
  0
ACAD_PROXY_OBJECT
  5
3F13
102
{ACAD_REACTORS
330
3F0E
102
}
330
3F0E
100
AcDbProxyObject
 90
      499
 91
      503
 93
      105
310
903313A384000000000000204000
  0
ACAD_PROXY_OBJECT
  5
3F14
102
{ACAD_REACTORS
330
3F0E
102
}
330
3F0E
100
AcDbProxyObject
 90
      499
 91
      503
 93
      113
310
904313A31304000000000000244000
  0
ACAD_PROXY_OBJECT
  5
3F15
102
{ACAD_REACTORS
330
3F0E
102
}
330
3F0E
100
AcDbProxyObject
 90
      499
 91
      503
 93
      113
310
904313A31364000000000000304000
  0
ACAD_PROXY_OBJECT
  5
3F16
102
{ACAD_REACTORS
330
3F0E
102
}
330
3F0E
100
AcDbProxyObject
 90
      499
 91
      503
 93
      113
310
904313A32304000000000000344000
  0
ACAD_PROXY_OBJECT
  5
3F17
102
{ACAD_REACTORS
330
3F0E
102
}
330
3F0E
100
AcDbProxyObject
 90
      499
 91
      503
 93
      113
310
904313A333040000000000003E4000
  0
ACAD_PROXY_OBJECT
  5
3F18
102
{ACAD_REACTORS
330
3F0E
102
}
330
3F0E
100
AcDbProxyObject
 90
      499
 91
      503
 93
      113
310
904313A34304000000000000444000
  0
ACAD_PROXY_OBJECT
  5
3F19
102
{ACAD_REACTORS
330
3F0E
102
}
330
3F0E
100
AcDbProxyObject
 90
      499
 91
      503
 93
      113
310
904313A35304000000000000494000
  0
ACAD_PROXY_OBJECT
  5
3F1A
102
{ACAD_REACTORS
330
3F0E
102
}
330
3F0E
100
AcDbProxyObject
 90
      499
 91
      503
 93
      121
310
905313A3130304000000000000594000
  0
ACAD_PROXY_OBJECT
  5
3F1B
102
{ACAD_REACTORS
330
3F0E
102
}
330
3F0E
100
AcDbProxyObject
 90
      499
 91
      503
 93
      105
310
903323A310000000000000010100
  0
ACAD_PROXY_OBJECT
  5
3F1C
102
{ACAD_REACTORS
330
3F0E
102
}
330
3F0E
100
AcDbProxyObject
 90
      499
 91
      503
 93
      105
310
903343A310000000000000410100
  0
ACAD_PROXY_OBJECT
  5
3F1D
102
{ACAD_REACTORS
330
3F0E
102
}
330
3F0E
100
AcDbProxyObject
 90
      499
 91
      503
 93
      105
310
903383A310000000000000810100
  0
ACAD_PROXY_OBJECT
  5
3F1E
102
{ACAD_REACTORS
330
3F0E
102
}
330
3F0E
100
AcDbProxyObject
 90
      499
 91
      503
 93
      113
310
90431303A310000000000000910100
  0
ACAD_PROXY_OBJECT
  5
3F1F
102
{ACAD_REACTORS
330
3F0E
102
}
330
3F0E
100
AcDbProxyObject
 90
      499
 91
      503
 93
      121
310
9053130303A310000000000001650100
  0
ACAD_PROXY_OBJECT
  5
3F20
102
{ACAD_REACTORS
330
3F0E
102
}
330
3F0E
100
AcDbProxyObject
 90
      499
 91
      503
 93
      257
310
90E312F31323822203D2031272D3022000000000000200FC000000000000284000
  0
ACAD_PROXY_OBJECT
  5
3F21
102
{ACAD_REACTORS
330
3F0E
102
}
330
3F0E
100
AcDbProxyObject
 90
      499
 91
      503
 93
      249
310
90D312F363422203D2031272D3022000000000000240FC000000000000284000
  0
ACAD_PROXY_OBJECT
  5
3F22
102
{ACAD_REACTORS
330
3F0E
102
}
330
3F0E
100
AcDbProxyObject
 90
      499
 91
      503
 93
      249
310
90D312F333222203D2031272D3022000000000000280FC000000000000284000
  0
ACAD_PROXY_OBJECT
  5
3F23
102
{ACAD_REACTORS
330
3F0E
102
}
330
3F0E
100
AcDbProxyObject
 90
      499
 91
      503
 93
      249
310
90D312F313622203D2031272D30220000000000002C0FC000000000000284000
  0
ACAD_PROXY_OBJECT
  5
3F24
102
{ACAD_REACTORS
330
3F0E
102
}
330
3F0E
100
AcDbProxyObject
 90
      499
 91
      503
 93
      249
310
90D332F333222203D2031272D30220000000000002E0FC000000000000284000
  0
ACAD_PROXY_OBJECT
  5
3F25
102
{ACAD_REACTORS
330
3F0E
102
}
330
3F0E
100
AcDbProxyObject
 90
      499
 91
      503
 93
      241
310
90C312F3822203D2031272D3022000000000000300FC000000000000284000
  0
ACAD_PROXY_OBJECT
  5
3F26
102
{ACAD_REACTORS
330
3F0E
102
}
330
3F0E
100
AcDbProxyObject
 90
      499
 91
      503
 93
      249
310
90D332F313622203D2031272D3022000000000000320FC000000000000284000
  0
ACAD_PROXY_OBJECT
  5
3F27
102
{ACAD_REACTORS
330
3F0E
102
}
330
3F0E
100
AcDbProxyObject
 90
      499
 91
      503
 93
      241
310
90C312F3422203D2031272D3022000000000000340FC000000000000284000
  0
ACAD_PROXY_OBJECT
  5
3F28
102
{ACAD_REACTORS
330
3F0E
102
}
330
3F0E
100
AcDbProxyObject
 90
      499
 91
      503
 93
      241
310
90C332F3822203D2031272D3022000000000000360FC000000000000284000
  0
ACAD_PROXY_OBJECT
  5
3F29
102
{ACAD_REACTORS
330
3F0E
102
}
330
3F0E
100
AcDbProxyObject
 90
      499
 91
      503
 93
      241
310
90C312F3222203D2031272D3022000000000000380FC000000000000284000
  0
ACAD_PROXY_OBJECT
  5
3F2A
102
{ACAD_REACTORS
330
3F0E
102
}
330
3F0E
100
AcDbProxyObject
 90
      499
 91
      503
 93
      241
310
90C332F3422203D2031272D30220000000000003A0FC000000000000284000
  0
ACAD_PROXY_OBJECT
  5
3F2B
102
{ACAD_REACTORS
330
3F0E
102
}
330
3F0E
100
AcDbProxyObject
 90
      499
 91
      503
 93
      161
310
90A3122203D2031272D30224000000000000284000
  0
ACAD_PROXY_OBJECT
  5
3F2C
102
{ACAD_REACTORS
330
3F0E
102
}
330
3F0E
100
AcDbProxyObject
 90
      499
 91
      503
 93
      257
310
90E312D312F3222203D2031272D30220000000000003E0FC000000000000284000
  0
ACAD_PROXY_OBJECT
  5
3F2D
102
{ACAD_REACTORS
330
3F0E
102
}
330
3F0E
100
AcDbProxyObject
 90
      499
 91
      503
 93
      225
310
90A3322203D2031272D302200000000000002100000000000000284000
  0
ACAD_PROXY_OBJECT
  5
3F2E
102
{ACAD_REACTORS
330
3F0E
102
}
330
3F0E
100
AcDbProxyObject
 90
      499
 91
      503
 93
      225
310
90A3622203D2031272D302200000000000006100000000000000284000
  0
ACAD_PROXY_OBJECT
  5
3F2F
102
{ACAD_REACTORS
330
3F0E
102
}
330
3F0E
100
AcDbProxyObject
 90
      499
 91
      503
 93
      249
310
90D31272D3022203D2031272D30220000000000000A100000000000000284000
  0
ACAD_PROXY_OBJECT
  5
3F38
102
{ACAD_REACTORS
330
3F33
102
}
330
3F33
100
AcDbProxyObject
 90
      499
 91
      505
 93
      436
310
42CC9915DA5C99599C985B595049028333333333333E3BF0000000000000FB0107901411070040501600405405064090741402480A0340
1001
ACAD
1000
AcDbSavedByObjectVersion
1070
     0
  0
ACAD_PROXY_OBJECT
  5
3F3A
102
{ACAD_REACTORS
330
3F33
102
}
330
3F33
100
AcDbProxyObject
 90
      499
 91
      505
 93
      500
310
424CD108121A5919195B90640502408333333333333E3BF0000000000000FB01079024090700405020000000000001110200405405064090740C02480A0340
1001
ACAD
1000
AcDbSavedByObjectVersion
1070
     0
  0
ACAD_PROXY_OBJECT
  5
3F39
102
{ACAD_REACTORS
330
3F33
102
}
330
3F33
100
AcDbProxyObject
 90
      499
 91
      505
 93
      436
310
42CCD915DA5C99599C985B595059028333333333333E3BF0000000000000FB0107901411070040501600405405064090741402480A0340
1001
ACAD
1000
AcDbSavedByObjectVersion
1070
     0
  0
ACAD_PROXY_OBJECT
  5
3F3B
102
{ACAD_REACTORS
330
3F33
102
}
330
3F33
100
AcDbProxyObject
 90
      499
 91
      505
 93
      388
310
4150985CDA58D07406404333333333333E3BF0000000000000FB0107A41107004050150841D405064090741402480A0350
1001
ACAD
1000
AcDbSavedByObjectVersion
1070
     0
  0
ACAD_PROXY_OBJECT
  5
3F3F
102
{ACAD_REACTORS
330
3F33
102
}
330
3F33
100
AcDbProxyObject
 90
      499
 91
      505
 93
      428
310
42109C9A59DA1D195B90C409028333333333333E3BF0000000000000FB010790141107004050150841D405064090741402480A029950
1001
ACAD
1000
AcDbSavedByObjectVersion
1070
     0
  0
ACAD_PROXY_OBJECT
  5
3F43
102
{ACAD_REACTORS
330
3F33
102
}
330
3F33
100
AcDbProxyObject
 90
      499
 91
      505
 93
      452
310
42D0DBDB1BDC90DA185B99D95104090240C333333333333E3BF0000000000000FB0108901411070040501508421405064090741402480A0350
1001
ACAD
1000
AcDbSavedByObjectVersion
1070
     0
  0
ACAD_PROXY_OBJECT
  5
3F3D
102
{ACAD_REACTORS
330
3F33
102
}
330
3F33
100
AcDbProxyObject
 90
      499
 91
      505
 93
      500
310
4290DBDB98D95C1D1D585B10940D028333333333333E3BF0000000000000FB0107902409070040501000000000000111010841D405064090740C02480A0340
1001
ACAD
1000
AcDbSavedByObjectVersion
1070
     0
  0
ACAD_PROXY_OBJECT
  5
3F3E
102
{ACAD_REACTORS
330
3F33
102
}
330
3F33
100
AcDbProxyObject
 90
      499
 91
      505
 93
      412
310
40D11A5B50B409028333333333333E3BF0000000000000FB010790141107004050150841D405064090741402480A02677FFFFFD0
1001
ACAD
1000
AcDbSavedByObjectVersion
1070
     0
  0
ACAD_PROXY_OBJECT
  5
3F42
102
{ACAD_REACTORS
330
3F33
102
}
330
3F33
100
AcDbProxyObject
 90
      499
 91
      505
 93
      444
310
42D19858D95C185D1D195C9B90F409028333333333333E3BF0000000000000FB010790141107004050150841D405064090741402480A0350
1001
ACAD
1000
AcDbSavedByObjectVersion
1070
     0
  0
ACAD_PROXY_OBJECT
  5
3F34
102
{ACAD_REACTORS
330
3F33
102
}
330
3F33
100
AcDbProxyObject
 90
      499
 91
      505
 93
      388
310
41119B185D240901404333333333333E3BF0000000000000F9010740A41107004050150841D405064090741402480A1B50
1001
ACAD
1000
AcDbSavedByObjectVersion
1070
     0
  0
ACAD_PROXY_OBJECT
  5
3F35
102
{ACAD_REACTORS
330
3F33
102
}
330
3F33
100
AcDbProxyObject
 90
      499
 91
      505
 93
      476
310
43519B185D15DA5D1A115919D95CD0140901404333333333333E3BF0000000000000F9010740901411070040501600405405064090741402480A1B50
1001
ACAD
1000
AcDbSavedByObjectVersion
1070
     0
  0
ACAD_PROXY_OBJECT
  5
3F36
102
{ACAD_REACTORS
330
3F33
102
}
330
3F33
100
AcDbProxyObject
 90
      499
 91
      505
 93
      412
310
41D1DBDD5C985D5910240902404333333333333E3BF0000000000000F9010740A411070040501641D405064090741402480A1B50
1001
ACAD
1000
AcDbSavedByObjectVersion
1070
     0
  0
ACAD_PROXY_OBJECT
  5
3F37
102
{ACAD_REACTORS
330
3F33
102
}
330
3F33
100
AcDbProxyObject
 90
      499
 91
      505
 93
      500
310
4411DBDD5C985D5915DA5D1A115919D95CD0340902404333333333333E3BF0000000000000F9010740901411070040501600405405064090741402480A1B50
1001
ACAD
1000
AcDbSavedByObjectVersion
1070
     0
  0
ACAD_PROXY_OBJECT
  5
3F41
102
{ACAD_REACTORS
330
3F33
102
}
330
3F33
100
AcDbProxyObject
 90
      499
 91
      505
 93
      444
310
42D31A5B995C185D1D195C9B90E409028333333333333E3BF0000000000000FB010790141107004050750841D405064090741402483A0350
1001
ACAD
1000
AcDbSavedByObjectVersion
1070
     0
  0
ACAD_PROXY_OBJECT
  5
3F3C
102
{ACAD_REACTORS
330
3F33
102
}
330
3F33
100
AcDbProxyObject
 90
      499
 91
      505
 93
      420
310
425499585B1A5CDD1A58D08409028333333333333E3BF0000000000000FB01079019070040501508421405064090741402480A1B40
1001
ACAD
1000
AcDbSavedByObjectVersion
1070
     0
  0
ACAD_PROXY_OBJECT
  5
3F40
102
{ACAD_REACTORS
330
3F33
102
}
330
3F33
100
AcDbProxyObject
 90
      499
 91
      505
 93
      412
310
41D51A1A58DAD95B90D409028333333333333E3BF0000000000000FB010790141107004050150C41D405064090741402480A0350
1001
ACAD
1000
AcDbSavedByObjectVersion
1070
     0
  0
XRECORD
  5
3FAF
102
{ACAD_REACTORS
330
3FA6
102
}
330
3FA6
100
AcDbXrecord
 90
        0
  0
XRECORD
  5
3FC7
102
{ACAD_REACTORS
330
3FA6
102
}
330
3FA6
100
AcDbXrecord
340
3ED1
  0
XRECORD
  5
3FC5
102
{ACAD_REACTORS
330
3FA6
102
}
330
3FA6
100
AcDbXrecord
1000
DSTYLE
1002
{
1070
   289
 70
     0
1070
   141
 40
0.19
1070
   176
 70
   256
1070
   177
 70
   256
1070
   178
 70
    30
1070
   271
 70
     2
1070
    42
 40
0.18
1070
     3
  1
"
1070
    40
 40
12.0
1070
   272
 70
     2
1070
   146
 40
0.5
1070
   340
340
F
1070
   140
 40
0.188
1002
}
  0
XRECORD
  5
3FB0
102
{ACAD_REACTORS
330
3FA6
102
}
330
3FA6
100
AcDbXrecord
  1
{25049FA0-F550-11D5-860F-0050BA8518E3}
  0
XRECORD
  5
3FA9
102
{ACAD_REACTORS
330
3FA6
102
}
330
3FA6
100
AcDbXrecord
  1

  0
XRECORD
  5
3FAE
102
{ACAD_REACTORS
330
3FA6
102
}
330
3FA6
100
AcDbXrecord
 90
        0
  0
XRECORD
  5
3FAB
102
{ACAD_REACTORS
330
3FA6
102
}
330
3FA6
100
AcDbXrecord
340
2FA7
  0
XRECORD
  5
3FAD
102
{ACAD_REACTORS
330
3FA6
102
}
330
3FA6
100
AcDbXrecord
 90
    10781
  0
XRECORD
  5
3FC8
102
{ACAD_REACTORS
330
3FA6
102
}
330
3FA6
100
AcDbXrecord
340
3ED0
  0
XRECORD
  5
3FAC
102
{ACAD_REACTORS
330
3FA6
102
}
330
3FA6
100
AcDbXrecord
340
2FA8
  0
XRECORD
  5
3FB2
102
{ACAD_REACTORS
330
3FA6
102
}
330
3FA6
100
AcDbXrecord
 40
0.0
  0
XRECORD
  5
3FB5
102
{ACAD_REACTORS
330
3FA6
102
}
330
3FA6
100
AcDbXrecord
340
0
  0
XRECORD
  5
3FBB
102
{ACAD_REACTORS
330
3FA6
102
}
330
3FA6
100
AcDbXrecord
 10
0.0
 20
0.0
 30
0.0
  0
XRECORD
  5
3FB7
102
{ACAD_REACTORS
330
3FA6
102
}
330
3FA6
100
AcDbXrecord
 10
0.0
 20
0.0
 30
0.0
  0
XRECORD
  5
3FBA
102
{ACAD_REACTORS
330
3FA6
102
}
330
3FA6
100
AcDbXrecord
 10
0.0
 20
0.0
 30
0.0
  0
XRECORD
  5
3FB8
102
{ACAD_REACTORS
330
3FA6
102
}
330
3FA6
100
AcDbXrecord
 10
0.0
 20
0.0
 30
0.0
  0
XRECORD
  5
3FB9
102
{ACAD_REACTORS
330
3FA6
102
}
330
3FA6
100
AcDbXrecord
 10
0.0
 20
0.0
 30
0.0
  0
XRECORD
  5
3FB6
102
{ACAD_REACTORS
330
3FA6
102
}
330
3FA6
100
AcDbXrecord
 10
0.0
 20
0.0
 30
0.0
  0
XRECORD
  5
3FB3
102
{ACAD_REACTORS
330
3FA6
102
}
330
3FA6
100
AcDbXrecord
340
0
  0
XRECORD
  5
3FB4
102
{ACAD_REACTORS
330
3FA6
102
}
330
3FA6
100
AcDbXrecord
 70
     0
  0
XRECORD
  5
3FAA
102
{ACAD_REACTORS
330
3FA6
102
}
330
3FA6
100
AcDbXrecord
  1
monochrome.ctb
  0
XRECORD
  5
3FA7
102
{ACAD_REACTORS
330
3FA6
102
}
330
3FA6
100
AcDbXrecord
 90
        1
  0
XRECORD
  5
3FA8
102
{ACAD_REACTORS
330
3FA6
102
}
330
3FA6
100
AcDbXrecord
 90
       70
  0
XRECORD
  5
3FBE
102
{ACAD_REACTORS
330
3FA6
102
}
330
3FA6
100
AcDbXrecord
340
0
  0
XRECORD
  5
3FC4
102
{ACAD_REACTORS
330
3FA6
102
}
330
3FA6
100
AcDbXrecord
 10
0.0
 20
0.0
 30
0.0
  0
XRECORD
  5
3FC0
102
{ACAD_REACTORS
330
3FA6
102
}
330
3FA6
100
AcDbXrecord
 10
0.0
 20
0.0
 30
0.0
  0
XRECORD
  5
3FC3
102
{ACAD_REACTORS
330
3FA6
102
}
330
3FA6
100
AcDbXrecord
 10
0.0
 20
0.0
 30
0.0
  0
XRECORD
  5
3FC1
102
{ACAD_REACTORS
330
3FA6
102
}
330
3FA6
100
AcDbXrecord
 10
0.0
 20
0.0
 30
0.0
  0
XRECORD
  5
3FC2
102
{ACAD_REACTORS
330
3FA6
102
}
330
3FA6
100
AcDbXrecord
 10
0.0
 20
0.0
 30
0.0
  0
XRECORD
  5
3FBF
102
{ACAD_REACTORS
330
3FA6
102
}
330
3FA6
100
AcDbXrecord
 10
0.0
 20
0.0
 30
0.0
  0
XRECORD
  5
3FBC
102
{ACAD_REACTORS
330
3FA6
102
}
330
3FA6
100
AcDbXrecord
340
0
  0
XRECORD
  5
3FBD
102
{ACAD_REACTORS
330
3FA6
102
}
330
3FA6
100
AcDbXrecord
 70
     0
  0
XRECORD
  5
3FB1
102
{ACAD_REACTORS
330
3FA6
102
}
330
3FA6
100
AcDbXrecord
  1
{17EA89B2-938E-459C-A9DB-7C994B7F9017}
  0
DICTIONARYVAR
  5
3FC6
102
{ACAD_REACTORS
330
41
102
}
330
41
100
DictionaryVariables
280
     0
  1
1:1
  0
DICTIONARYVAR
  5
3EEA
102
{ACAD_REACTORS
330
41
102
}
330
41
100
DictionaryVariables
280
     0
  1
Standard
  0
DICTIONARYVAR
  5
42
102
{ACAD_REACTORS
330
41
102
}
330
41
100
DictionaryVariables
280
     0
  1
0
  0
DICTIONARYVAR
  5
3EEB
102
{ACAD_REACTORS
330
41
102
}
330
41
100
DictionaryVariables
280
     0
  1
1
  0
DICTIONARYVAR
  5
3F67
102
{ACAD_REACTORS
330
41
102
}
330
41
100
DictionaryVariables
280
     0
  1
0
  0
DICTIONARYVAR
  5
3EEC
102
{ACAD_REACTORS
330
41
102
}
330
41
100
DictionaryVariables
280
     0
  1

  0
DICTIONARYVAR
  5
3028
102
{ACAD_REACTORS
330
41
102
}
330
41
100
DictionaryVariables
280
     0
  1
96
  0
DICTIONARYVAR
  5
3F68
102
{ACAD_REACTORS
330
41
102
}
330
41
100
DictionaryVariables
280
     0
  1
0
  0
DICTIONARY
  5
3FCB
330
3F31
100
AcDbDictionary
280
     1
  3
ACAD_XREC_ROUNDTRIP
360
3FCC
  0
DICTIONARY
  5
3FC9
330
3F30
100
AcDbDictionary
280
     1
  3
ACAD_XREC_ROUNDTRIP
360
3FCA
  0
DICTIONARY
  5
3FCD
330
3F32
100
AcDbDictionary
280
     1
  3
ACAD_XREC_ROUNDTRIP
360
3FCE
  0
XRECORD
  5
3FCC
102
{ACAD_REACTORS
330
3FCB
102
}
330
3FCB
100
AcDbXrecord
102
MATERIAL
148
0.0
149
0.0
149
0.0
 93
        0
 94
      127
282
     0
 72
     1
 77
     1
171
     1
175
     1
179
     1
273
     0
  0
XRECORD
  5
3FCA
102
{ACAD_REACTORS
330
3FC9
102
}
330
3FC9
100
AcDbXrecord
102
MATERIAL
148
0.0
149
0.0
149
0.0
 93
        0
 94
      127
282
     0
 72
     1
 77
     1
171
     1
175
     1
179
     1
273
     0
  0
XRECORD
  5
3FCE
102
{ACAD_REACTORS
330
3FCD
102
}
330
3FCD
100
AcDbXrecord
102
MATERIAL
148
0.0
149
0.0
149
0.0
 93
        0
 94
      127
282
     0
 72
     1
 77
     1
171
     1
175
     1
179
     1
273
     0
  0
ENDSEC
  0
EOF
